BILL36
隐世仙人♂

[2024] [大陆] [剧情] [WEB-4K] 新生[全10集][国语配音/中文字幕].Regeneration.S01.2024.2160p.WEB-DL.H265.AAC-BlackTV 12.19GB

-->

完整标题:新生[全10集][国语配音/中文字幕].Regeneration.S01.2024.2160p.WEB-DL.H265.AAC-BlackTV 12.19GB



◎标  题 新生
◎译  名 费可的晚宴 / Regeneration
◎年  代 2024
◎产  地 中国大陆
◎类  别 剧情 / 悬疑
◎语  言 汉语普通话
◎IMDb链接 https://www.imdb.com/title/tt28178829/
◎豆瓣链接 https://movie.douban.com/subject/36127872/
◎导  演 申奥 Ao Shen
◎编  剧 申奥 Ao Shen
      张艺凡 Emily Zhang
      高博洋 Boyang Gao
      郑林 Lin Zheng
◎演  员 井柏然 Boran Jing
      周依然 Yiran Zhou
      王砚辉 Yanhui Wang
      黄觉 Jue Huang
      张艺凡 Yifan Zhang
      彭杨 Yang Peng
      何廖侣匀 Lüyun Heliao
      陈雨贤 Yuxian Chen
      高博洋 Boyang Gao

◎简  介
    一场关于费可(井柏然 饰)的追思会,女记者何珊(周依然 饰)与五位陌生人一同受邀。他们都跟费可有着不为人知的过往,但他们发现所认识的费可并不是同一个人。费可到底是谁?众人展开回溯,逐步揭开了关于费可的真相……

部分资源为软字幕,移动端推荐播放器:MxPlayer,nPlayer,infuse ,其他播放器请自行尝试。

部分资源为软字幕,电脑端推荐播放器:PotPlayer,完美解码,KMPLAYER,其他播放器请自行尝试。

下载端推荐纯BT下载软件:qBittorrent,Bitcomet,uTorrent ,其他下载软件请自行尝试。不支持吸血迅雷。

##### MediaInfo ######
General
Unique ID : 158313227081233778518088765439110643579 (0x771A04B9FAED86C8F3CBAFEB4A1D7F7B)
Complete name : Regeneration.S01E01.2024.2160p.WEB-DL.H265.AAC-BlackTV.mkv
Duration : 41 min 31 s
Overall bit rate : 3 706 kb/s

Video
ID : 1
Format : HEVC
Format/Info : High Efficiency Video Coding
Format profile : Main@L5@Main
Codec ID : V_MPEGH/ISO/HEVC
Duration : 41 min 31 s
Bit rate : 3 512 kb/s
Width : 3 840 pixels
Height : 2 160 pixels
Display aspect ratio : 16:9
Frame rate mode : Constant
Frame rate : 25.000 FPS
Color space : YUV
Chroma subsampling : 4:2:0
Bit depth : 8 bits
Bits/(Pixel*Frame) : 0.017
Stream size : 1.02 GiB (95%)
Language : Chinese
Default : Yes
Forced : No
Color range : Limited
Color primaries : BT.709
Transfer characteristics : BT.709
Matrix coefficients : BT.709
VENDOR_ID : [0][0][0][0]

Audio
ID : 2
Format : AAC LC
Format/Info : Advanced Audio Codec Low Complexity
Codec ID : A_AAC-2
Duration : 41 min 31 s
Bit rate : 192 kb/s
Channel(s) : 2 channels
Channel layout : L R
Sampling rate : 44.1 kHz
Frame rate : 43.066 FPS (1024 SPF)
Compression mode : Lossy
Stream size : 57.0 MiB (5%)
Title : Mandarin [AAC2.0]
Language : Chinese
Default : No
Forced : No
VENDOR_ID : [0][0][0][0]

Menu
00:02:21.678 : zh:费可机场突发意外 何珊惊慌失措
00:07:33.974 : zh:费可因病去世?何珊受邀参加追思会
00:16:19.350 : zh:费可没有死?何珊掀棺材众人被困
00:24:17.704 : zh:陈总讲述费可与女儿故事 直言费可是凶手
00:31:12.215 : zh:父女俩因费可吵架 女儿气极剪信用卡


点击图片可查看大图

软字幕无法在截图上展现,HDR版本/杜比视界版本截图会出现颜色异常,请使用支持的设备播放!



1 个附件 售价 大小 下载 时间

Regeneration.S01.2024.2160p.WEB-DL.H265.AAC-BlackTV[1LOU.ME].torrent 0 金币 33.74K 2408 次 4天前

#1楼
发帖时间:2024-05-16 08:59:35   |   回复数:0
游客组