BILL36
隐世仙人♂

[2024] [日本] [动画] [WEB-1080P] 因为不是真正的伙伴而被逐出勇者队伍,流落到边境展开慢活人生 第二季[第11集][中文字幕].2024.1080p.WEB-DL.H264.AAC-ZeroTV

-->

完整标题:因为不是真正的伙伴而被逐出勇者队伍,流落到边境展开慢活人生 第二季[第11集][中文字幕].2024.1080p.WEB-DL.H264.AAC-ZeroTV 0.26GB



◎标  题 因为不是真正的伙伴而被逐出勇者队伍,流落到边境展开慢活人生 第二季
◎译  名 我被逐出队伍后过上慢生活 第二季 / Banished from the Hero's Party / I Decided to Live a Quiet Life in the Countryside: Season 2
◎片  名 真の仲間じゃないと勇者のパーティーを追い出されたので、辺境でスローライフすることにしました 2nd
◎年  代 2024
◎产  地 日本
◎类  别 动画 / 奇幻
◎语  言 日语
◎IMDb链接 https://www.imdb.com/title//
◎豆瓣链接 https://movie.douban.com/subject/36141308/
◎导  演 星野真 Hosino Makoto
      高藤聪 Takafuji Satoshi
◎编  剧 清水惠 Megumi Shimizu
◎演  员 铃木崚汰 Ryouta Suzuki
      高尾奏音 Takao Kanon
      大空直美 Naomi Ohzora
      钉宫理惠 Rie Kugimiya
      雨宫天 Sora Amamiya
      花守由美里 Yumiri Hanamori
      加隈亚衣 Ai Kakuma
      三上哲 Satoshi Mikami
      内田彩 Aya Uchida
      岩泽俊树 Toshiki Iwasawa
      渊崎由里子 Yuriko Fuchizaki
      鸠冈大辅 Hatōka Daisuke
      天崎滉平 Kôhei Amasaki

◎简  介
    TV动画『我被逐出队伍后过上慢生活』宣布第二季制作决定

部分资源为软字幕,移动端推荐播放器:MxPlayer,nPlayer,infuse ,其他播放器请自行尝试。

部分资源为软字幕,电脑端推荐播放器:PotPlayer,完美解码,KMPLAYER,其他播放器请自行尝试。

下载端推荐纯BT下载软件:qBittorrent,Bitcomet,uTorrent ,其他下载软件请自行尝试。不支持吸血迅雷。

##### MediaInfo ######
General
Complete name : Banished.from.the.Heros.Party.I.Decided.to.Live.a.Quiet.Life.in.the.Countryside.S02E11.2024.1080p.WEB-DL.H264.AAC-ZeroTV.mp4
Duration : 23 min 32 s
Overall bit rate : 1 578 kb/s

Video
ID : 1
Format : AVC
Format/Info : Advanced Video Codec
Format profile : High@L5
Format settings : CABAC / 8 Ref Frames
Format settings, CABAC : Yes
Format settings, Reference frames : 8 frames
Codec ID : avc1
Codec ID/Info : Advanced Video Coding
Duration : 23 min 32 s
Bit rate : 1 397 kb/s
Width : 1 920 pixels
Height : 1 080 pixels
Display aspect ratio : 16:9
Frame rate mode : Variable
Frame rate : 23.976 (24000/1001) FPS
Minimum frame rate : 23.810 FPS
Maximum frame rate : 24.390 FPS
Color space : YUV
Chroma subsampling : 4:2:0
Bit depth : 8 bits
Scan type : Progressive
Bits/(Pixel*Frame) : 0.028
Stream size : 235 MiB (89%)
Color range : Limited
Color primaries : BT.709
Transfer characteristics : BT.709
Matrix coefficients : BT.709
Codec configuration box : avcC

Audio
ID : 2
Format : AAC LC
Format/Info : Advanced Audio Codec Low Complexity
Codec ID : mp4a-40-2
Duration : 23 min 32 s
Bit rate mode : Constant
Bit rate : 174 kb/s
Channel(s) : 2 channels
Channel layout : L R
Sampling rate : 48.0 kHz
Frame rate : 46.875 FPS (1024 SPF)
Compression mode : Lossy
Stream size : 29.3 MiB (11%)
Default : Yes
Alternate group : 1


点击图片可查看大图

软字幕无法在截图上展现,HDR版本/杜比视界版本截图会出现颜色异常,请使用支持的设备播放!



1 个附件 售价 大小 下载 时间

2024.1080p.WEB-DL.H264.AAC-ZeroTV[1LOU.ME].torrent 0 金币 3.25K 126 次 18天前

#1楼
发帖时间:2024-05-26 23:53:10   |   回复数:0
游客组