BILL36
隐世仙人♂

[2021] [日本] [动画] [WEB-1080P] 无职转生:到了异世界就拿出真本事[第19集][简繁英字幕].2023.1080p.B-Global.WEB-DL.x264.AAC-ZeroTV 0.31GB

-->

完整标题:无职转生:到了异世界就拿出真本事[第19集][简繁英字幕].2023.1080p.B-Global.WEB-DL.x264.AAC-ZeroTV 0.31GB



◎标  题 无职转生:到了异世界就拿出真本事
◎译  名 Mushoku Tensei: Jobless Reincarnation
◎片  名 無職転生~異世界行ったら本気だす~
◎年  代 2021
◎产  地 日本
◎类  别 动画 / 冒险
◎语  言 日语
◎IMDb评分 8.3/10 (18118人评价)
◎IMDb链接 https://www.imdb.com/title/tt13293588/
◎豆瓣评分 5.3/10 (50018人评价)
◎豆瓣链接 https://movie.douban.com/subject/30513783/
◎导  演 冈本学 Okamoto Manabu
◎编  剧 冈本学 Okamoto Manabu
◎演  员 内山夕实 Yumi Uchiyama
      小原好美 Konomi Kohara
      茅野爱衣 Ai Kayano
      加隈亚衣 Ai Kakuma
      森川智之 Toshiyuki Morikawa
      金元寿子 Hisako Kanemoto
      Lynn Lynn
      浪川大辅 Daisuke Namikawa
      竹田海渡 Takeda Kaitonm
      和泉风花 Izumi Fuka
      坂田将吾 Shogo Sakata
      会泽纱弥 Aizawa Saya
      高冈瓶瓶 Binbin Takaoka
      杉田智和 Tomokazu Sugita
      岩泽俊树 Toshiki Iwasawa

◎简  介
    一场车祸夺走了34岁无业家里蹲男青年的生命,当他再度苏醒之后,震惊的发现自己竟然穿越到了异世界中,附身在了一位名为鲁迪乌斯(内山夕实 配音)的贵族少爷身上。面对这命运之神给予他的重新来过的机会,男子发誓这一世一定要拿出点真本事来认真的生活。然而,尽管鲁迪乌斯有着这般宏达的决心,但废柴大叔的本性却还是屡屡暴露。   沉默寡言的三无魔法师洛琪希(小原好美 配音),个性软弱,因此想要学习魔法来自我保护的希露菲叶特(茅野爱衣 配音),个性暴躁但体能超强的艾莉丝(加隈亚衣 配音),和鲁迪乌斯一起在异世界里生活的,是这些可爱的女孩们。

部分资源为软字幕,移动端推荐播放器:MxPlayer,nPlayer,infuse ,其他播放器请自行尝试。

部分资源为软字幕,电脑端推荐播放器:PotPlayer,完美解码,KMPLAYER,其他播放器请自行尝试。

下载端推荐纯BT下载软件:qBittorrent,Bitcomet,uTorrent ,其他下载软件请自行尝试。不支持吸血迅雷。

##### MediaInfo ######
General
Unique ID : 118917395289207077532134012479517719605 (0x5976A8418288D68794FB0B09860F7C35)
Complete name : Mushoku.Tensei.Isekai.Ittara.Honki.Dasu.S02E19.2023.1080p.WEB-DL.x264.AAC-ZeroTV.mkv
Duration : 23 min 40 s
Overall bit rate : 1 874 kb/s

Video
ID : 1
Format : AVC
Format/Info : Advanced Video Codec
Format profile : High@L5
Format settings : CABAC / 8 Ref Frames
Format settings, CABAC : Yes
Format settings, Reference frames : 8 frames
Codec ID : V_MPEG4/ISO/AVC
Duration : 23 min 40 s
Bit rate : 1 681 kb/s
Width : 1 920 pixels
Height : 1 080 pixels
Display aspect ratio : 16:9
Frame rate mode : Constant
Frame rate : 23.976 (24000/1001) FPS
Original frame rate : 23.976 (23976/1000) FPS
Color space : YUV
Chroma subsampling : 4:2:0
Bit depth : 8 bits
Scan type : Progressive
Bits/(Pixel*Frame) : 0.034
Stream size : 284 MiB (90%)
Title : Japanese
Language : Japanese
Default : Yes
Forced : No
Color range : Limited
Color primaries : BT.709
Transfer characteristics : BT.709
Matrix coefficients : BT.709

Audio
ID : 2
Format : AAC LC
Format/Info : Advanced Audio Codec Low Complexity
Codec ID : A_AAC-2
Duration : 23 min 40 s
Bit rate : 192 kb/s
Channel(s) : 2 channels
Channel layout : L R
Sampling rate : 48.0 kHz
Frame rate : 46.875 FPS (1024 SPF)
Compression mode : Lossy
Stream size : 32.2 MiB (10%)
Title : Japanese
Language : Japanese
Default : Yes
Forced : No

Text #1
ID : 3
Format : UTF-8
Codec ID : S_TEXT/UTF8
Codec ID/Info : UTF-8 Plain Text
Duration : 23 min 38 s
Bit rate : 47 b/s
Frame rate : 0.230 FPS
Count of elements : 326
Stream size : 8.25 KiB (0%)
Title : Chinese Simplified
Language : Chinese
Default : Yes
Forced : No

Text #2
ID : 4
Format : UTF-8
Codec ID : S_TEXT/UTF8
Codec ID/Info : UTF-8 Plain Text
Duration : 23 min 38 s
Bit rate : 47 b/s
Frame rate : 0.230 FPS
Count of elements : 326
Stream size : 8.25 KiB (0%)
Title : Chinese Traditional
Language : Chinese
Default : No
Forced : No

Text #3
ID : 5
Format : UTF-8
Codec ID : S_TEXT/UTF8
Codec ID/Info : UTF-8 Plain Text
Duration : 23 min 38 s
Bit rate : 49 b/s
Frame rate : 0.180 FPS
Count of elements : 256
Stream size : 8.61 KiB (0%)
Title : English
Language : English
Default : No
Forced : No

Text #4
ID : 6
Format : UTF-8
Codec ID : S_TEXT/UTF8
Codec ID/Info : UTF-8 Plain Text
Duration : 23 min 38 s
Bit rate : 144 b/s
Frame rate : 0.197 FPS
Count of elements : 279
Stream size : 25.1 KiB (0%)
Title : ???????
Language : Thai
Default : No
Forced : No

Text #5
ID : 7
Format : UTF-8
Codec ID : S_TEXT/UTF8
Codec ID/Info : UTF-8 Plain Text
Duration : 23 min 38 s
Bit rate : 71 b/s
Frame rate : 0.214 FPS
Count of elements : 303
Stream size : 12.4 KiB (0%)
Title : Ti?ng Vi?t
Language : Vietnamese
Default : No
Forced : No

Text #6
ID : 8
Format : UTF-8
Codec ID : S_TEXT/UTF8
Codec ID/Info : UTF-8 Plain Text
Duration : 23 min 38 s
Bit rate : 50 b/s
Frame rate : 0.189 FPS
Count of elements : 268
Stream size : 8.68 KiB (0%)
Title : Bahasa Indonesia
Language : Indonesian
Default : No
Forced : No


点击图片可查看大图

软字幕无法在截图上展现,HDR版本/杜比视界版本截图会出现颜色异常,请使用支持的设备播放!



1 个附件 售价 大小 下载 时间

2023.1080p.B-Global.WEB-DL.x264.AAC-ZeroTV[1LOU.ME].torrent 0 金币 3.29K 133 次 18天前

#1楼
发帖时间:2024-05-26 23:54:21   |   回复数:0
游客组