BILL36
隐世仙人♂

[2023] [日本] [动画] [WEB-1080P] 无职转生Ⅱ 到了异世界就拿出真本事 Part.1[第19集][中文字幕].2023.1080p.Baha.WEB-DL.x264.AAC-ZeroTV 0.72

-->

完整标题:无职转生Ⅱ 到了异世界就拿出真本事 Part.1[第19集][中文字幕].2023.1080p.Baha.WEB-DL.x264.AAC-ZeroTV 0.72GB



◎标  题 无职转生Ⅱ 到了异世界就拿出真本事 Part.1
◎译  名 无职转生:到了异世界就拿出真本事 2 / 無職転生~異世界行ったら本気だす~ Seasons 2
◎片  名 無職転生Ⅱ ~異世界行ったら本気だす~
◎年  代 2023
◎产  地 日本
◎类  别 动画
◎语  言 日语
◎IMDb评分 7.1/10 (450人评价)
◎IMDb链接 https://www.imdb.com/title/tt28283826/
◎豆瓣评分 8.3/10 (6928人评价)
◎豆瓣链接 https://movie.douban.com/subject/35460731/
◎导  演 平野宏树 Hirano Hiroki
◎编  剧 大野敏哉 Ono Toshiya
◎演  员 内山夕实 Yumi Uchiyama
      杉田智和 Tomokazu Sugita
      白石晴香 Shiraishi Haruka
      小林优 Yu Kobayashi
      羽多野涉 Wataru Hatano
      泽城千春 Chiharu Sawashiro
      山本格 Yamamoto Itaru
      鸟海浩辅 Kosuke Toriumi
      上田丽奈 Reina Ueda
      兴津和幸 Kazuyuki Okitsu
      茅野爱衣 Ai Kayano

◎简  介
    艾莉丝消失后过了几个月。鲁迪乌斯尽管内心感到空虚,还是为了寻找母亲塞妮丝,来到巴榭兰特公国的第二都市罗森堡。胸中抱着强烈孤独感的鲁迪乌斯原本打算单独行动,却受到路上认识的队伍半强迫式的邀约,和他们一起处理委托.....   「我不能自暴自弃,该去做那些必须做的事情」。历经千辛万苦后,对于和艾莉丝分离一事应该已经做出决断。然而,这件事却在意外的方面侵蚀鲁迪乌斯..….... ?

部分资源为软字幕,移动端推荐播放器:MxPlayer,nPlayer,infuse ,其他播放器请自行尝试。

部分资源为软字幕,电脑端推荐播放器:PotPlayer,完美解码,KMPLAYER,其他播放器请自行尝试。

下载端推荐纯BT下载软件:qBittorrent,Bitcomet,uTorrent ,其他下载软件请自行尝试。不支持吸血迅雷。

##### MediaInfo ######
General
Complete name : Mushoku.Tensei.Isekai.Ittara.Honki.Dasu.S02E19.2023.1080p.Baha.WEB-DL.x264.AAC-ZeroTV.mp4
Duration : 23 min 40 s
Overall bit rate : 4 364 kb/s

Video
ID : 1
Format : AVC
Format/Info : Advanced Video Codec
Format profile : High@L5
Format settings : CABAC / 4 Ref Frames
Format settings, CABAC : Yes
Format settings, Reference frames : 4 frames
Codec ID : avc1
Codec ID/Info : Advanced Video Coding
Duration : 23 min 40 s
Source duration : 23 min 40 s
Bit rate : 4 050 kb/s
Width : 1 920 pixels
Height : 1 080 pixels
Display aspect ratio : 16:9
Frame rate mode : Variable
Frame rate : 23.976 (24000/1001) FPS
Minimum frame rate : 23.974 FPS
Maximum frame rate : 23.981 FPS
Color space : YUV
Chroma subsampling : 4:2:0
Bit depth : 8 bits
Scan type : Progressive
Bits/(Pixel*Frame) : 0.081
Stream size : 685 MiB (93%)
Source stream size : 685 MiB (93%)
Writing library : x264 core 161 r3018 db0d417
Encoding settings : cabac=1 / ref=4 / deblock=1:-1:-1 / analyse=0x3:0x113 / me=umh / subme=9 / psy=1 / psy_rd=1.00:0.00 / mixed_ref=1 / me_range=16 / chroma_me=1 / trellis=2 / 8x8dct=1 / cqm=0 / deadzone=21,11 / fast_pskip=1 / chroma_qp_offset=-2 / threads=24 / lookahead_threads=2 / sliced_threads=0 / nr=0 / decimate=1 / interlaced=0 / bluray_compat=0 / constrained_intra=0 / bframes=8 / b_pyramid=2 / b_adapt=1 / b_bias=0 / direct=3 / weightb=1 / open_gop=0 / weightp=2 / keyint=250 / keyint_min=23 / scenecut=40 / intra_refresh=0 / rc_lookahead=50 / rc=crf / mbtree=1 / crf=21.0 / qcomp=0.60 / qpmin=0 / qpmax=69 / qpstep=4 / vbv_maxrate=12000 / vbv_bufsize=80000 / crf_max=0.0 / nal_hrd=none / filler=0 / ip_ratio=1.40 / aq=3:1.00
Codec configuration box : avcC

Audio
ID : 2
Format : AAC LC
Format/Info : Advanced Audio Codec Low Complexity
Codec ID : mp4a-40-2
Duration : 23 min 40 s
Bit rate mode : Constant
Bit rate : 309 kb/s
Channel(s) : 2 channels
Channel layout : L R
Sampling rate : 48.0 kHz
Frame rate : 46.875 FPS (1024 SPF)
Compression mode : Lossy
Stream size : 52.3 MiB (7%)
Language : Japanese
Default : Yes
Alternate group : 1


点击图片可查看大图

软字幕无法在截图上展现,HDR版本/杜比视界版本截图会出现颜色异常,请使用支持的设备播放!



1 个附件 售价 大小 下载 时间

2023.1080p.Baha.WEB-DL.x264.AAC-ZeroTV[1LOU.ME].torrent 0 金币 4.33K 259 次 18天前

#1楼
发帖时间:2024-05-26 23:54:36   |   回复数:0
游客组