BILL36
隐世仙人♂

[2023] [大陆] [其它] [WEB-1080P] 上新吧,福味[全8集][国语配音/中文字幕].New.Taste.of.Fujian.S01.2023.1080p.Hami.WEB-DL.H264.AAC-L

-->

完整标题:上新吧,福味[全8集][国语配音/中文字幕].New.Taste.of.Fujian.S01.2023.1080p.Hami.WEB-DL.H264.AAC-LelveTV 21.28GB



◎标  题 上新吧,福味
◎年  代 2023
◎产  地 中国大陆
◎类  别 纪录片
◎语  言 汉语普通话
◎IMDb链接 https://www.imdb.com/title//
◎豆瓣链接 https://movie.douban.com/subject/36285423/

◎简  介
    乡村振兴题材纪录片《上新吧,福味》定档,将于2月27日在东南卫视、海峡卫视首播,腾讯视频同步播出。据悉,该片将展现食物的“山海经”和“林草戏”,展现八闽水土与闽南文化和谐共创出地道物产的过程,以地理标志为切入点打开乡村振兴的视野,深入农耕生活解读中华文明的本源。

部分资源为软字幕,移动端推荐播放器:MxPlayer,nPlayer,infuse ,其他播放器请自行尝试。

部分资源为软字幕,电脑端推荐播放器:PotPlayer,完美解码,KMPLAYER,其他播放器请自行尝试。

下载端推荐纯BT下载软件:qBittorrent,Bitcomet,uTorrent ,其他下载软件请自行尝试。不支持吸血迅雷。

##### MediaInfo ######
General
Unique ID : 324072802417637395343983077121920208099 (0xF3CE26C45CED9BD2C48593DEDBBA0CE3)
Complete name : New.Taste.of.Fujian.S01E01.2023.1080p.Hami.WEB-DL.H264.AAC-LelveTV.mkv
Duration : 47 min 55 s
Overall bit rate : 7 942 kb/s

Video
ID : 1
Format : AVC
Format/Info : Advanced Video Codec
Format profile : High@L4
Format settings : CABAC / 3 Ref Frames
Format settings, CABAC : Yes
Format settings, Reference frames : 3 frames
Format settings, GOP : M=1, N=30
Codec ID : V_MPEG4/ISO/AVC
Duration : 47 min 55 s
Bit rate : 7 872 kb/s
Width : 1 920 pixels
Height : 1 080 pixels
Display aspect ratio : 16:9
Frame rate mode : Constant
Frame rate : 29.970 (29970/1000) FPS
Color space : YUV
Chroma subsampling : 4:2:0
Bit depth : 8 bits
Scan type : Progressive
Bits/(Pixel*Frame) : 0.127
Stream size : 2.61 GiB (98%)
Writing library : x264 core 157 r2935 545de2f
Encoding settings : cabac=1 / ref=3 / deblock=1:0:0 / analyse=0x3:0x113 / me=hex / subme=7 / psy=1 / psy_rd=1.00:0.00 / mixed_ref=1 / me_range=16 / chroma_me=1 / trellis=1 / 8x8dct=1 / cqm=0 / deadzone=21,11 / fast_pskip=1 / chroma_qp_offset=-2 / threads=34 / lookahead_threads=5 / sliced_threads=0 / nr=0 / decimate=1 / interlaced=0 / bluray_compat=0 / constrained_intra=0 / bframes=0 / weightp=2 / keyint=30 / keyint_min=16 / scenecut=0 / intra_refresh=0 / rc_lookahead=30 / rc=abr / mbtree=1 / bitrate=7872 / ratetol=1.0 / qcomp=0.60 / qpmin=0 / qpmax=69 / qpstep=4 / vbv_maxrate=8000 / vbv_bufsize=7872 / nal_hrd=none / filler=0 / ip_ratio=1.40 / aq=1:1.00
Default : Yes
Forced : No

Audio
ID : 2
Format : AAC LC
Format/Info : Advanced Audio Codec Low Complexity
Codec ID : A_AAC-2
Duration : 47 min 55 s
Bit rate : 128 kb/s
Channel(s) : 2 channels
Channel layout : L R
Sampling rate : 48.0 kHz
Frame rate : 46.875 FPS (1024 SPF)
Compression mode : Lossy
Stream size : 43.9 MiB (2%)
Default : Yes
Forced : No


点击图片可查看大图

软字幕无法在截图上展现,HDR版本/杜比视界版本截图会出现颜色异常,请使用支持的设备播放!



1 个附件 售价 大小 下载 时间

New.Taste.of.Fujian.S01.2023.1080p.Hami.WEB-DL.H264.AAC-LelveTV[1LOU.ME].torrent 0 金币 56.40K 392 次 18天前

#1楼
发帖时间:2024-05-26 23:55:05   |   回复数:0
游客组