BILL36
隐世仙人♂

[2023] [美国] [剧情] [WEB-1080P] 秘密入侵[全6集][简繁英字幕].Secret.Invasion.S01.2023.1080p.DSNP.WEB-DL.H.264.DDP5.1.Atmos-Z

-->

完整标题:秘密入侵[全6集][简繁英字幕].Secret.Invasion.S01.2023.1080p.DSNP.WEB-DL.H.264.DDP5.1.Atmos-ZeroTV 12.16GB



◎标  题 秘密入侵
◎片  名 Secret Invasion
◎年  代 2023
◎产  地 美国
◎类  别 剧情 / 动作 / 科幻 / 悬疑 / 惊悚 / 冒险
◎语  言 英语
◎IMDb评分 5.9/10 (72236人评价)
◎IMDb链接 https://www.imdb.com/title/tt13157618/
◎豆瓣评分 5.0/10 (13834人评价)
◎豆瓣链接 https://movie.douban.com/subject/35284245/
◎导  演 阿里·萨利姆 Ali Selim
◎编  剧 凯尔·布拉德斯特里特 Kyle Bradstreet
      布莱恩·塔克特 Brian Tucker
      罗珊妮·帕拉德斯 Roxanne Paredes
      迈克尔·比姆 Michael Bhim
◎演  员 塞缪尔·杰克逊 Samuel L. Jackson
      本·门德尔森 Ben Mendelsohn
      艾米莉亚·克拉克 Emilia Clarke
      唐·钱德尔 Don Cheadle
      金斯利·本-阿迪尔 Kingsley Ben-Adir
      奥利维娅·科尔曼 Olivia Colman
      查莱宁·伍德拉德 Charlayne Woodard
      寇碧·史莫德斯 Cobie Smulders
      马丁·弗瑞曼 Martin Freeman
      O·T·法格本 O.T. Fagbenle
      基连·斯科特 Killian Scott
      山姆·阿德文米 Samuel Adewunmi
      凯蒂·芬内朗 Katie Finneran
      厄梅拉·琦琦库娃 Irmena Chichikova
      德蒙特·莫罗尼 Dermot Mulroney
      米迦勒·埃普 Michael Epp
      马克·巴泽利 Mark Bazeley
      马克·刘易斯 Mark Lewis
      克里斯托弗·麦克唐纳 Christopher McDonald
      吴国耀 Christopher Goh
      托尼·库兰 Tony Curran
      吉皮耶罗·朱迪卡 Giampiero Judica
      本·皮尔 Ben Peel
      安娜·梅德利 Anna Madeley
      大卫·巴克·琼斯 David Bark-Jones
      理查德·多默 Richard Dormer
      迈尔斯·基奥治 Michael Keogh
      理查德·特弗森 Richard Teverson
      塞塔·因德尼 Seeta Indrani
      马克·诺布尔 Mark Noble
      彼得·桑迪斯-克拉克 Peter Sandys-Clarke
      尤吉尼亚·克鲁索 Eugenia Caruso
      卡门·艾乔戈 Carmen Ejogo
      Grace Boyle
      吉恩-帕斯卡尔·海涅曼德 Jean-Pascal Heynemand
      安迪·M·米利根 Andy M Milligan
      凯恩·艾登 Cain Aiden

◎简  介
    讲述尼克·弗瑞(塞缪尔·杰克逊 饰)重返地球,在塔罗斯(本·门德尔森 饰)、玛莉亚·希尔(寇碧·史莫德斯 饰)的帮助下,阻止斯克鲁人的入侵。

部分资源为软字幕,移动端推荐播放器:MxPlayer,nPlayer,infuse ,其他播放器请自行尝试。

部分资源为软字幕,电脑端推荐播放器:PotPlayer,完美解码,KMPLAYER,其他播放器请自行尝试。

下载端推荐纯BT下载软件:qBittorrent,Bitcomet,uTorrent ,其他下载软件请自行尝试。不支持吸血迅雷。

##### MediaInfo ######
General
Unique ID : 179489795391114619866874174726705289599 (0x87087A2785CFCB7A1AD3FE0CA00C997F)
Complete name : Secret.Invasion.S01E01.2023.1080p.DSNP.WEB-DL.H.264.DDP5.1.Atmos-ZeroTV.mkv
Duration : 52 min 44 s
Overall bit rate mode : Variable
Overall bit rate : 6 702 kb/s

Video
ID : 1
Format : AVC
Format/Info : Advanced Video Codec
Format profile : High@L4
Format settings : CABAC / 4 Ref Frames
Format settings, CABAC : Yes
Format settings, Reference frames : 4 frames
Codec ID : V_MPEG4/ISO/AVC
Duration : 52 min 44 s
Bit rate mode : Variable
Bit rate : 5 929 kb/s
Maximum bit rate : 12.7 Mb/s
Width : 1 920 pixels
Height : 1 080 pixels
Display aspect ratio : 16:9
Frame rate mode : Constant
Frame rate : 24.000 FPS
Color space : YUV
Chroma subsampling : 4:2:0
Bit depth : 8 bits
Scan type : Progressive
Bits/(Pixel*Frame) : 0.119
Stream size : 2.18 GiB (88%)
Language : English
Default : Yes
Forced : No
Color range : Limited
Color primaries : BT.709
Transfer characteristics : BT.709
Matrix coefficients : BT.709

Audio
ID : 2
Format : E-AC-3 JOC
Format/Info : Enhanced AC-3 with Joint Object Coding
Commercial name : Dolby Digital Plus with Dolby Atmos
Codec ID : A_EAC3
Duration : 52 min 44 s
Bit rate mode : Constant
Bit rate : 768 kb/s
Channel(s) : 6 channels
Channel layout : L R C LFE Ls Rs
Sampling rate : 48.0 kHz
Frame rate : 31.250 FPS (1536 SPF)
Compression mode : Lossy
Stream size : 290 MiB (11%)
Language : English
Service kind : Complete Main
Default : Yes
Forced : No
Complexity index : 16
Number of dynamic objects : 15
Bed channel count : 1 channel
Bed channel configuration : LFE

Text #1
ID : 3
Format : UTF-8
Codec ID : S_TEXT/UTF8
Codec ID/Info : UTF-8 Plain Text
Duration : 49 min 22 s
Bit rate : 48 b/s
Frame rate : 0.183 FPS
Count of elements : 541
Stream size : 17.4 KiB (0%)
Title : SDH
Language : English
Default : No
Forced : No

Text #2
ID : 4
Format : UTF-8
Codec ID : S_TEXT/UTF8
Codec ID/Info : UTF-8 Plain Text
Duration : 52 min 27 s
Bit rate : 37 b/s
Frame rate : 0.152 FPS
Count of elements : 477
Stream size : 14.2 KiB (0%)
Language : Czech
Default : No
Forced : No

Text #3
ID : 5
Format : UTF-8
Codec ID : S_TEXT/UTF8
Codec ID/Info : UTF-8 Plain Text
Duration : 52 min 26 s
Bit rate : 36 b/s
Frame rate : 0.113 FPS
Count of elements : 356
Stream size : 14.0 KiB (0%)
Language : Danish
Default : No
Forced : No

Text #4
ID : 6
Format : UTF-8
Codec ID : S_TEXT/UTF8
Codec ID/Info : UTF-8 Plain Text
Duration : 52 min 27 s
Bit rate : 40 b/s
Frame rate : 0.154 FPS
Count of elements : 485
Stream size : 15.7 KiB (0%)
Language : German
Default : No
Forced : No

Text #5
ID : 7
Format : UTF-8
Codec ID : S_TEXT/UTF8
Codec ID/Info : UTF-8 Plain Text
Duration : 52 min 27 s
Bit rate : 72 b/s
Frame rate : 0.152 FPS
Count of elements : 478
Stream size : 28.0 KiB (0%)
Language : Greek
Default : No
Forced : No

Text #6
ID : 8
Format : UTF-8
Codec ID : S_TEXT/UTF8
Codec ID/Info : UTF-8 Plain Text
Duration : 52 min 27 s
Bit rate : 41 b/s
Frame rate : 0.152 FPS
Count of elements : 477
Stream size : 15.9 KiB (0%)
Title : Latin America
Language : Spanish
Default : No
Forced : No

Text #7
ID : 9
Format : UTF-8
Codec ID : S_TEXT/UTF8
Codec ID/Info : UTF-8 Plain Text
Duration : 52 min 27 s
Bit rate : 40 b/s
Frame rate : 0.151 FPS
Count of elements : 476
Stream size : 15.5 KiB (0%)
Language : Spanish
Default : No
Forced : No

Text #8
ID : 10
Format : UTF-8
Codec ID : S_TEXT/UTF8
Codec ID/Info : UTF-8 Plain Text
Duration : 52 min 27 s
Bit rate : 40 b/s
Frame rate : 0.151 FPS
Count of elements : 475
Stream size : 15.4 KiB (0%)
Language : Finnish
Default : No
Forced : No

Text #9
ID : 11
Format : UTF-8
Codec ID : S_TEXT/UTF8
Codec ID/Info : UTF-8 Plain Text
Duration : 49 min 19 s
Bit rate : 40 b/s
Frame rate : 0.173 FPS
Count of elements : 513
Stream size : 14.8 KiB (0%)
Title : Canada
Language : French
Default : No
Forced : No

Text #10
ID : 12
Format : UTF-8
Codec ID : S_TEXT/UTF8
Codec ID/Info : UTF-8 Plain Text
Duration : 52 min 26 s
Bit rate : 38 b/s
Frame rate : 0.163 FPS
Count of elements : 513
Stream size : 14.9 KiB (0%)
Language : French
Default : No
Forced : No

Text #11
ID : 13
Format : UTF-8
Codec ID : S_TEXT/UTF8
Codec ID/Info : UTF-8 Plain Text
Duration : 52 min 27 s
Bit rate : 41 b/s
Frame rate : 0.152 FPS
Count of elements : 479
Stream size : 15.8 KiB (0%)
Language : Hungarian
Default : No
Forced : No

Text #12
ID : 14
Format : UTF-8
Codec ID : S_TEXT/UTF8
Codec ID/Info : UTF-8 Plain Text
Duration : 52 min 27 s
Bit rate : 40 b/s
Frame rate : 0.151 FPS
Count of elements : 475
Stream size : 15.4 KiB (0%)
Language : Italian
Default : No
Forced : No

Text #13
ID : 15
Format : UTF-8
Codec ID : S_TEXT/UTF8
Codec ID/Info : UTF-8 Plain Text
Duration : 52 min 27 s
Bit rate : 37 b/s
Frame rate : 0.148 FPS
Count of elements : 466
Stream size : 14.4 KiB (0%)
Language : Japanese
Default : No
Forced : No

Text #14
ID : 16
Format : UTF-8
Codec ID : S_TEXT/UTF8
Codec ID/Info : UTF-8 Plain Text
Duration : 52 min 27 s
Bit rate : 41 b/s
Frame rate : 0.153 FPS
Count of elements : 480
Stream size : 15.8 KiB (0%)
Language : Korean
Default : No
Forced : No

Text #15
ID : 17
Format : UTF-8
Codec ID : S_TEXT/UTF8
Codec ID/Info : UTF-8 Plain Text
Duration : 52 min 27 s
Bit rate : 36 b/s
Frame rate : 0.151 FPS
Count of elements : 476
Stream size : 14.1 KiB (0%)
Language : Norwegian Bokmal
Default : No
Forced : No

Text #16
ID : 18
Format : UTF-8
Codec ID : S_TEXT/UTF8
Codec ID/Info : UTF-8 Plain Text
Duration : 52 min 27 s
Bit rate : 39 b/s
Frame rate : 0.143 FPS
Count of elements : 451
Stream size : 15.2 KiB (0%)
Language : Dutch
Default : No
Forced : No

Text #17
ID : 19
Format : UTF-8
Codec ID : S_TEXT/UTF8
Codec ID/Info : UTF-8 Plain Text
Duration : 52 min 27 s
Bit rate : 41 b/s
Frame rate : 0.151 FPS
Count of elements : 475
Stream size : 16.0 KiB (0%)
Language : Polish
Default : No
Forced : No

Text #18
ID : 20
Format : UTF-8
Codec ID : S_TEXT/UTF8
Codec ID/Info : UTF-8 Plain Text
Duration : 52 min 27 s
Bit rate : 44 b/s
Frame rate : 0.152 FPS
Count of elements : 478
Stream size : 17.0 KiB (0%)
Title : Brazil
Language : Portuguese
Default : No
Forced : No

Text #19
ID : 21
Format : UTF-8
Codec ID : S_TEXT/UTF8
Codec ID/Info : UTF-8 Plain Text
Duration : 52 min 27 s
Bit rate : 42 b/s
Frame rate : 0.152 FPS
Count of elements : 477
Stream size : 16.2 KiB (0%)
Language : Portuguese
Default : No
Forced : No

Text #20
ID : 22
Format : UTF-8
Codec ID : S_TEXT/UTF8
Codec ID/Info : UTF-8 Plain Text
Duration : 52 min 27 s
Bit rate : 40 b/s
Frame rate : 0.152 FPS
Count of elements : 477
Stream size : 15.6 KiB (0%)
Language : Romanian
Default : No
Forced : No

Text #21
ID : 23
Format : UTF-8
Codec ID : S_TEXT/UTF8
Codec ID/Info : UTF-8 Plain Text
Duration : 52 min 27 s
Bit rate : 39 b/s
Frame rate : 0.152 FPS
Count of elements : 477
Stream size : 15.1 KiB (0%)
Language : Slovak
Default : No
Forced : No

Text #22
ID : 24
Format : UTF-8
Codec ID : S_TEXT/UTF8
Codec ID/Info : UTF-8 Plain Text
Duration : 52 min 27 s
Bit rate : 38 b/s
Frame rate : 0.123 FPS
Count of elements : 387
Stream size : 14.9 KiB (0%)
Language : Swedish
Default : No
Forced : No

Text #23
ID : 25
Format : UTF-8
Codec ID : S_TEXT/UTF8
Codec ID/Info : UTF-8 Plain Text
Duration : 52 min 27 s
Bit rate : 40 b/s
Frame rate : 0.152 FPS
Count of elements : 479
Stream size : 15.6 KiB (0%)
Language : Turkish
Default : No
Forced : No

Text #24
ID : 26
Format : UTF-8
Codec ID : S_TEXT/UTF8
Codec ID/Info : UTF-8 Plain Text
Duration : 52 min 27 s
Bit rate : 31 b/s
Frame rate : 0.153 FPS
Count of elements : 480
Stream size : 12.3 KiB (0%)
Title : Chinese Traditional
Language : Chinese
Default : No
Forced : No

Text #25
ID : 27
Format : UTF-8
Codec ID : S_TEXT/UTF8
Codec ID/Info : UTF-8 Plain Text
Duration : 52 min 27 s
Bit rate : 33 b/s
Frame rate : 0.153 FPS
Count of elements : 480
Stream size : 12.9 KiB (0%)
Title : Chinese Traditional, Hong Kong
Language : Chinese
Default : No
Forced : No

Text #26
ID : 28
Format : UTF-8
Codec ID : S_TEXT/UTF8
Codec ID/Info : UTF-8 Plain Text
Duration : 52 min 27 s
Bit rate : 31 b/s
Frame rate : 0.153 FPS
Count of elements : 480
Stream size : 12.3 KiB (0%)
Title : Chinese Simplified
Language : Chinese
Default : Yes
Forced : No

Menu
00:50:20.625 : en:Credits


点击图片可查看大图

软字幕无法在截图上展现,HDR版本/杜比视界版本截图会出现颜色异常,请使用支持的设备播放!



1 个附件 售价 大小 下载 时间

Secret.Invasion.S01.2023.1080p.DSNP.WEB-DL.H.264.DDP5.1.Atmos-ZeroTV[1LOU.ME].torrent 0 金币 33.43K 497 次 18天前

#1楼
发帖时间:2024-05-26 23:55:20   |   回复数:0
游客组