BILL36
隐世仙人♂

[2024] [日本] [剧情] [WEB-1080P] 转生贵族靠着鉴定技能一飞冲天[第08集][简繁英字幕].2024.1080p.B-Global.WEB-DL.x264.AAC-ZeroTV 0.23GB

-->

完整标题:转生贵族靠着鉴定技能一飞冲天[第08集][简繁英字幕].2024.1080p.B-Global.WEB-DL.x264.AAC-ZeroTV 0.23GB



◎标  题 转生贵族靠着鉴定技能一飞冲天
◎译  名 转世贵族 / 以鉴定技能发迹~因为继承了弱小的领地 / 所以如果增加了优秀的人才 / 就会成为最强的领地~ / 转生贵族凭鉴定技能扭转人生
◎片  名 転生貴族、鑑定スキルで成り上がる
◎年  代 2024
◎产  地 日本
◎类  别 剧情 / 动画 / 奇幻
◎语  言 日语
◎IMDb链接 https://www.imdb.com/title//
◎豆瓣链接 https://movie.douban.com/subject/36399513/
◎导  演 加户誉夫 Takao Kato
◎编  剧 中西泰博 Yasuhiro Nakanishi
◎演  员 藤原夏海 Natsumi Fujiwara
      坂泰斗 Ban Taito
      佳穂成美 Kaho Narumi
      冈咲美保 Miho Okasaki
      花泽香菜 Kana Hanazawa
      东地宏树 Hiroki Touchi
      生天目仁美 Hitomi Nabatame
      户松遥 Haruka Tomatsu

◎简  介
    过着平凡人生的平凡上班族,某天准备出门上班时心脏病发,醒来时已经成为异世界某个弱小贵族家的嫡子「亚尔斯」。到了这个世界,亚尔斯还是一样平凡,只是多了能将别人的能力化为数值的「鉴定」能力。得知自己的国家转眼就要爆发战乱后,亚尔斯为了生存并且保护领地与领民,决定用「鉴定」能力四处网罗优秀人才,从无到有打造超强领地!

部分资源为软字幕,移动端推荐播放器:MxPlayer,nPlayer,infuse ,其他播放器请自行尝试。

部分资源为软字幕,电脑端推荐播放器:PotPlayer,完美解码,KMPLAYER,其他播放器请自行尝试。

下载端推荐纯BT下载软件:qBittorrent,Bitcomet,uTorrent ,其他下载软件请自行尝试。不支持吸血迅雷。

##### MediaInfo ######
General
Unique ID : 119393561420961514128478006552195779329 (0x59D25D0F0AA67A826A8736A028304B01)
Complete name : Tensei.Kizoku.Kantei.Skill.de.Nariagaru.S01E08.2024.1080p.WEB-DL.x264.AAC-ZeroTV.mkv
Duration : 23 min 40 s
Overall bit rate : 1 372 kb/s

Video
ID : 1
Format : AVC
Format/Info : Advanced Video Codec
Format profile : High@L5
Format settings : CABAC / 8 Ref Frames
Format settings, CABAC : Yes
Format settings, Reference frames : 8 frames
Codec ID : V_MPEG4/ISO/AVC
Duration : 23 min 40 s
Bit rate : 1 176 kb/s
Width : 1 920 pixels
Height : 1 080 pixels
Display aspect ratio : 16:9
Frame rate mode : Constant
Frame rate : 23.976 (24000/1001) FPS
Original frame rate : 23.976 (23976/1000) FPS
Color space : YUV
Chroma subsampling : 4:2:0
Bit depth : 8 bits
Scan type : Progressive
Bits/(Pixel*Frame) : 0.024
Stream size : 199 MiB (86%)
Title : Japanese
Language : Japanese
Default : Yes
Forced : No
Color range : Limited
Color primaries : BT.709
Transfer characteristics : BT.709
Matrix coefficients : BT.709

Audio
ID : 2
Format : AAC LC
Format/Info : Advanced Audio Codec Low Complexity
Codec ID : A_AAC-2
Duration : 23 min 40 s
Bit rate : 192 kb/s
Channel(s) : 2 channels
Channel layout : L R
Sampling rate : 48.0 kHz
Frame rate : 46.875 FPS (1024 SPF)
Compression mode : Lossy
Stream size : 32.6 MiB (14%)
Title : Japanese
Language : Japanese
Default : Yes
Forced : No

Text #1
ID : 3
Format : UTF-8
Codec ID : S_TEXT/UTF8
Codec ID/Info : UTF-8 Plain Text
Duration : 23 min 36 s
Bit rate : 63 b/s
Frame rate : 0.306 FPS
Count of elements : 433
Stream size : 11.0 KiB (0%)
Title : Chinese Simplified
Language : Chinese
Default : Yes
Forced : No

Text #2
ID : 4
Format : UTF-8
Codec ID : S_TEXT/UTF8
Codec ID/Info : UTF-8 Plain Text
Duration : 23 min 36 s
Bit rate : 63 b/s
Frame rate : 0.306 FPS
Count of elements : 433
Stream size : 11.0 KiB (0%)
Title : Chinese Traditional
Language : Chinese
Default : No
Forced : No

Text #3
ID : 5
Format : UTF-8
Codec ID : S_TEXT/UTF8
Codec ID/Info : UTF-8 Plain Text
Duration : 23 min 36 s
Bit rate : 73 b/s
Frame rate : 0.306 FPS
Count of elements : 434
Stream size : 12.7 KiB (0%)
Title : English
Language : English
Default : No
Forced : No

Text #4
ID : 6
Format : UTF-8
Codec ID : S_TEXT/UTF8
Codec ID/Info : UTF-8 Plain Text
Duration : 23 min 36 s
Bit rate : 197 b/s
Frame rate : 0.306 FPS
Count of elements : 434
Stream size : 34.1 KiB (0%)
Title : ???????
Language : Thai
Default : No
Forced : No

Text #5
ID : 7
Format : UTF-8
Codec ID : S_TEXT/UTF8
Codec ID/Info : UTF-8 Plain Text
Duration : 23 min 31 s
Bit rate : 76 b/s
Frame rate : 0.289 FPS
Count of elements : 408
Stream size : 13.1 KiB (0%)
Title : Bahasa Indonesia
Language : Indonesian
Default : No
Forced : No


点击图片可查看大图

软字幕无法在截图上展现,HDR版本/杜比视界版本截图会出现颜色异常,请使用支持的设备播放!



1 个附件 售价 大小 下载 时间

2024.1080p.B-Global.WEB-DL.x264.AAC-ZeroTV[1LOU.ME].torrent 0 金币 3.09K 105 次 18天前

#1楼
发帖时间:2024-05-26 23:55:35   |   回复数:0
游客组