BILL36
隐世仙人♂

[2024] [日本] [剧情] [WEB-1080P] 转生贵族靠着鉴定技能一飞冲天[第08集][中文字幕].2024.1080p.WEB-DL.H264.AAC-ZeroTV 1.20GB

-->

完整标题:转生贵族靠着鉴定技能一飞冲天[第08集][中文字幕].2024.1080p.WEB-DL.H264.AAC-ZeroTV 1.20GB



◎标  题 转生贵族靠着鉴定技能一飞冲天
◎译  名 转世贵族 / 以鉴定技能发迹~因为继承了弱小的领地 / 所以如果增加了优秀的人才 / 就会成为最强的领地~ / 转生贵族凭鉴定技能扭转人生
◎片  名 転生貴族、鑑定スキルで成り上がる
◎年  代 2024
◎产  地 日本
◎类  别 剧情 / 动画 / 奇幻
◎语  言 日语
◎IMDb链接 https://www.imdb.com/title//
◎豆瓣链接 https://movie.douban.com/subject/36399513/
◎导  演 加户誉夫 Takao Kato
◎编  剧 中西泰博 Yasuhiro Nakanishi
◎演  员 藤原夏海 Natsumi Fujiwara
      坂泰斗 Ban Taito
      佳穂成美 Kaho Narumi
      冈咲美保 Miho Okasaki
      花泽香菜 Kana Hanazawa
      东地宏树 Hiroki Touchi
      生天目仁美 Hitomi Nabatame
      户松遥 Haruka Tomatsu

◎简  介
    过着平凡人生的平凡上班族,某天准备出门上班时心脏病发,醒来时已经成为异世界某个弱小贵族家的嫡子「亚尔斯」。到了这个世界,亚尔斯还是一样平凡,只是多了能将别人的能力化为数值的「鉴定」能力。得知自己的国家转眼就要爆发战乱后,亚尔斯为了生存并且保护领地与领民,决定用「鉴定」能力四处网罗优秀人才,从无到有打造超强领地!

部分资源为软字幕,移动端推荐播放器:MxPlayer,nPlayer,infuse ,其他播放器请自行尝试。

部分资源为软字幕,电脑端推荐播放器:PotPlayer,完美解码,KMPLAYER,其他播放器请自行尝试。

下载端推荐纯BT下载软件:qBittorrent,Bitcomet,uTorrent ,其他下载软件请自行尝试。不支持吸血迅雷。

##### MediaInfo ######
General
Unique ID : 231691400028935687096290350781600919964 (0xAE4E23F8F0A39879AD7AE1E0F974719C)
Complete name : Tensei.Kizoku.Kantei.Skill.de.Nariagaru.S01E08.2024.1080p.WEB-DL.H264.AAC-ZeroTV.mkv
Duration : 23 min 40 s
Overall bit rate : 7 259 kb/s

Video
ID : 1
Format : AVC
Format/Info : Advanced Video Codec
Format profile : [email protected]
Format settings : CABAC / 1 Ref Frames
Format settings, CABAC : Yes
Format settings, Reference frames : 1 frame
Format settings, GOP : M=1, N=60
Codec ID : V_MPEG4/ISO/AVC
Duration : 23 min 40 s
Bit rate mode : Constant
Bit rate : 7 130 kb/s
Nominal bit rate : 8 000 kb/s
Width : 1 920 pixels
Height : 1 080 pixels
Display aspect ratio : 16:9
Frame rate mode : Constant
Frame rate : 29.970 (30000/1001) FPS
Color space : YUV
Chroma subsampling : 4:2:0
Bit depth : 8 bits
Scan type : Progressive
Bits/(Pixel*Frame) : 0.115
Stream size : 1.18 GiB (98%)
Language : English
Default : Yes
Forced : No

Audio
ID : 2
Format : AAC LC
Format/Info : Advanced Audio Codec Low Complexity
Codec ID : A_AAC-2
Duration : 23 min 39 s
Bit rate : 125 kb/s
Channel(s) : 2 channels
Channel layout : L R
Sampling rate : 48.0 kHz
Frame rate : 46.875 FPS (1024 SPF)
Compression mode : Lossy
Stream size : 21.2 MiB (2%)
Title : 日语
Language : Japanese
Default : Yes
Forced : No

Text #1
ID : 3
Format : UTF-8
Codec ID : S_TEXT/UTF8
Codec ID/Info : UTF-8 Plain Text
Duration : 23 min 36 s
Bit rate : 63 b/s
Frame rate : 0.306 FPS
Count of elements : 433
Stream size : 11.0 KiB (0%)
Title : 简体中文
Language : Chinese
Default : No
Forced : No

Text #2
ID : 4
Format : UTF-8
Codec ID : S_TEXT/UTF8
Codec ID/Info : UTF-8 Plain Text
Duration : 23 min 36 s
Bit rate : 63 b/s
Frame rate : 0.306 FPS
Count of elements : 433
Stream size : 11.0 KiB (0%)
Title : 繁体中文
Language : Chinese
Default : No
Forced : No


点击图片可查看大图

软字幕无法在截图上展现,HDR版本/杜比视界版本截图会出现颜色异常,请使用支持的设备播放!



1 个附件 售价 大小 下载 时间

2024.1080p.WEB-DL.H264.AAC-ZeroTV[1LOU.ME].torrent 0 金币 5.50K 133 次 18天前

#1楼
发帖时间:2024-05-26 23:56:03   |   回复数:0
游客组