BILL36
隐世仙人♂

[2024] [大陆] [真人秀] [WEB-4K] 超级语文课 第三季[第01-12集][国语配音/中文字幕].Chao.Ji.Yu.Wen.Ke.S03.2024.2160p.WEB-DL.H265.AAC-L

-->

完整标题:超级语文课 第三季[第01-12集][国语配音/中文字幕].Chao.Ji.Yu.Wen.Ke.S03.2024.2160p.WEB-DL.H265.AAC-LelveTV 41.59GB



◎标  题 超级语文课 第三季
◎年  代 2024
◎产  地 中国大陆
◎类  别 真人秀
◎语  言 汉语普通话
◎IMDb链接 https://www.imdb.com/title//
◎豆瓣链接 https://movie.douban.com/subject/36652980/

◎简  介
    山东卫视全国首档大语文公开课《超级语文课》第三季官宣招募选手,如果你是与学生打成一片的师范新人,如果你有丰富深厚的文学素养和知识储备,如果你会创新教学方法和课堂趣味互动,这里就是展示你教学风采的讲台。

部分资源为软字幕,移动端推荐播放器:MxPlayer,nPlayer,infuse ,其他播放器请自行尝试。

部分资源为软字幕,电脑端推荐播放器:PotPlayer,完美解码,KMPLAYER,其他播放器请自行尝试。

下载端推荐纯BT下载软件:qBittorrent,Bitcomet,uTorrent ,其他下载软件请自行尝试。不支持吸血迅雷。

##### MediaInfo ######
General
Unique ID : 237302076180017037217061950088862124315 (0xB286B7AA04E3BAFE9DA522EAF252491B)
Complete name : Chao.Ji.Yu.Wen.Ke.S03E01.2024.2160p.WEB-DL.H265.AAC-LelveTV.mkv
Duration : 1 h 29 min
Overall bit rate : 5 955 kb/s

Video
ID : 1
Format : HEVC
Format/Info : High Efficiency Video Coding
Format profile : Main@L5@Main
Codec ID : V_MPEGH/ISO/HEVC
Duration : 1 h 29 min
Bit rate : 5 762 kb/s
Width : 3 840 pixels
Height : 2 160 pixels
Display aspect ratio : 16:9
Frame rate mode : Constant
Frame rate : 25.000 FPS
Color space : YUV
Chroma subsampling : 4:2:0
Bit depth : 8 bits
Bits/(Pixel*Frame) : 0.028
Stream size : 3.62 GiB (97%)
Language : Chinese
Default : Yes
Forced : No

Audio
ID : 2
Format : AAC LC
Format/Info : Advanced Audio Codec Low Complexity
Codec ID : A_AAC-2
Duration : 1 h 29 min
Bit rate : 192 kb/s
Channel(s) : 2 channels
Channel layout : L R
Sampling rate : 44.1 kHz
Frame rate : 43.066 FPS (1024 SPF)
Compression mode : Lossy
Stream size : 122 MiB (3%)
Default : No
Forced : No




1 个附件 售价 大小 下载 时间

Chao.Ji.Yu.Wen.Ke.S03.2024.2160p.WEB-DL.H265.AAC-LelveTV[1LOU.ME].torrent 0 金币 107.51K 224 次 18天前

#1楼
发帖时间:2024-05-26 23:56:32   |   回复数:0
游客组