BILL36
隐世仙人♂

[2024] [大陆] [真人秀] [WEB-4K] 青春环游记 第五季[第02集][国语配音/中文字幕].Youth.Travel.S05.2024.2160p.WEB-DL.H265.AAC-LelveTV 4

-->

完整标题:青春环游记 第五季[第02集][国语配音/中文字幕].Youth.Travel.S05.2024.2160p.WEB-DL.H265.AAC-LelveTV 4.90GB



◎标  题 青春环游记 第五季
◎年  代 2024
◎产  地 中国大陆
◎类  别 真人秀
◎语  言 汉语普通话
◎IMDb链接 https://www.imdb.com/title//
◎豆瓣链接 https://movie.douban.com/subject/36624308/
◎演  员 蔡卓妍 Charlene Choi
      杨迪 Di Yang
      刘宪华 Henry Lau
      徐明浩 Minghao Xu
      黄子弘凡 Zihongfan Huang
      吴奇隆 Nicky Wu
      金晨 Chen Jin
      成毅 Yi Cheng
      魏大勋 Daxun Wei
      张韶涵 Angela Chang
      朱梓骁 Zixiao Zhu
      丞磊 Lei Cheng
      蔡文静 Wenjing Cai
      毛晓彤 Xiaotong Mao
      陈立农 Leon Chan
      谢霆锋 Nicholas Tse
      马天宇 Ray Ma
      宋雨琦 Yuqi Song
      宁艺卓 NingNing
      黄仁俊 Huang Ren-Jun
      章昊 Hao Zhang
      文俊辉 Jerry Wen
      钟辰乐 Chenle Zhong
      王怡人 Yiren Wang
      董思成 WINWIN
      钱锟 Kun

◎简  介
    全球旅行爆笑开场,令人惊艳的cos角色扮演,去往全球10个城市,探索世界各地的奇妙   景色,发现鲜为人知的宝藏,在旅途中发掘当地人的生活方式、风俗习惯和传统文化。   2024拥抱龙年,飞龙在天,春游家族愿意与您,开启一场又一场的欢乐之旅。

部分资源为软字幕,移动端推荐播放器:MxPlayer,nPlayer,infuse ,其他播放器请自行尝试。

部分资源为软字幕,电脑端推荐播放器:PotPlayer,完美解码,KMPLAYER,其他播放器请自行尝试。

下载端推荐纯BT下载软件:qBittorrent,Bitcomet,uTorrent ,其他下载软件请自行尝试。不支持吸血迅雷。

##### MediaInfo ######
General
Unique ID : 47947750839646785840164821560074389027 (0x241266A2173EF9AFB3F34F08F24F4623)
Complete name : Youth.Travel.S05E02.2024.2160p.WEB-DL.H265.AAC-LelveTV.mkv
Duration : 1 h 51 min
Overall bit rate : 6 274 kb/s

Video
ID : 1
Format : HEVC
Format/Info : High Efficiency Video Coding
Format profile : Main@L5@Main
Codec ID : V_MPEGH/ISO/HEVC
Duration : 1 h 51 min
Bit rate : 6 082 kb/s
Width : 3 840 pixels
Height : 2 160 pixels
Display aspect ratio : 16:9
Frame rate mode : Constant
Frame rate : 25.000 FPS
Color space : YUV
Chroma subsampling : 4:2:0
Bit depth : 8 bits
Bits/(Pixel*Frame) : 0.029
Stream size : 4.75 GiB (97%)
Language : Chinese
Default : Yes
Forced : No

Audio
ID : 2
Format : AAC LC
Format/Info : Advanced Audio Codec Low Complexity
Codec ID : A_AAC-2
Duration : 1 h 51 min
Bit rate : 192 kb/s
Channel(s) : 2 channels
Channel layout : L R
Sampling rate : 44.1 kHz
Frame rate : 43.066 FPS (1024 SPF)
Compression mode : Lossy
Stream size : 152 MiB (3%)
Default : No
Forced : No


点击图片可查看大图

软字幕无法在截图上展现,HDR版本/杜比视界版本截图会出现颜色异常,请使用支持的设备播放!



1 个附件 售价 大小 下载 时间

Youth.Travel.S05.2024.2160p.WEB-DL.H265.AAC-LelveTV[1LOU.ME].torrent 0 金币 14.73K 175 次 18天前

#1楼
发帖时间:2024-05-26 23:56:46   |   回复数:0
游客组