BILL36
隐世仙人♂

[2024] [大陆] [剧情] [WEB-1080P] 少年巴比伦[全26集][国语配音/中文字幕].Young.Babylon.S01.2024.1080p.WEB-DL.H264.MPEG-ColorWEB 61

-->

完整标题:少年巴比伦[全26集][国语配音/中文字幕].Young.Babylon.S01.2024.1080p.WEB-DL.H264.MPEG-ColorWEB 61.08GB



◎标  题 少年巴比伦
◎译  名 少年巴比伦剧版 / Young Babylon
◎年  代 2024
◎产  地 中国大陆
◎类  别 剧情 / 爱情
◎语  言 汉语普通话
◎IMDb链接 https://www.imdb.com/title/tt26442657/
◎豆瓣链接 https://movie.douban.com/subject/35483390/
◎导  演 林育贤 Yu-Hsien Lin
◎编  剧 何亮
      朱金晨 Jinchen Zhu
      张柳 Liu Zhang
      母紫馨 Yolanda
      路内 Nei Lu
◎演  员 杨采钰 Caiyu Yang
      侯明昊 Minghao Hou
      向涵之 Hanzhi Xiang
      费启鸣 Qiming Fei
      张腾 Teng Zhang
      陈奕歌 Yige Chen
      隋媛 Yuan Sui
      张淞 Song Zhang
      王蔷 Qiang Wang
      张天舒 Tianshu Zhang

◎简  介
    上世纪90年代初,东南沿海小城——福城,一群在时代列车上追赶青春的少年,他们热烈而莽撞,肆意的野蛮生长。在寻找星辰大海中完成“平凡又不平凡”的蜕变,在青春最香甜灿烂的年代,努力迎向属于他们的光辉岁月,收获了成长与爱情。

部分资源为软字幕,移动端推荐播放器:MxPlayer,nPlayer,infuse ,其他播放器请自行尝试。

部分资源为软字幕,电脑端推荐播放器:PotPlayer,完美解码,KMPLAYER,其他播放器请自行尝试。

下载端推荐纯BT下载软件:qBittorrent,Bitcomet,uTorrent ,其他下载软件请自行尝试。不支持吸血迅雷。

##### MediaInfo ######
General
Complete name : 少年巴比伦.Young.Babylon.S01E01.2024.1080p.WEB-DL.H264.MPEG-ColorWEB.mp4
Duration : 42 min 22 s
Overall bit rate mode : Constant
Overall bit rate : 7 197 kb/s

Video
ID : 1
Format : AVC
Format/Info : Advanced Video Codec
Format profile : High@L4
Format settings : CABAC / 1 Ref Frames
Format settings, CABAC : Yes
Format settings, Reference frames : 1 frame
Format settings, GOP : M=1, N=25
Codec ID : avc1
Codec ID/Info : Advanced Video Coding
Duration : 42 min 22 s
Bit rate mode : Constant
Bit rate : 7 001 kb/s
Width : 1 920 pixels
Height : 1 080 pixels
Display aspect ratio : 16:9
Frame rate mode : Constant
Frame rate : 25.000 FPS
Standard : Component
Color space : YUV
Chroma subsampling : 4:2:0
Bit depth : 8 bits
Scan type : Progressive
Bits/(Pixel*Frame) : 0.135
Stream size : 2.07 GiB (97%)
Writing library : 2.3.58544.674002
Color range : Limited
Codec configuration box : avcC

Audio
ID : 2
Format : MPEG Audio
Format version : Version 1
Format profile : Layer 2
Codec ID : mp4a-6B
Duration : 42 min 22 s
Bit rate mode : Constant
Bit rate : 192 kb/s
Channel(s) : 2 channels
Sampling rate : 48.0 kHz
Compression mode : Lossy
Stream size : 58.2 MiB (3%)
Language : Chinese
Default : Yes
Alternate group : 1


点击图片可查看大图

软字幕无法在截图上展现,HDR版本/杜比视界版本截图会出现颜色异常,请使用支持的设备播放!



1 个附件 售价 大小 下载 时间

Young.Babylon.S01.2024.1080p.WEB-DL.H264.MPEG-ColorWEB[1LOU.ME].torrent 0 金币 157.89K 175 次 18天前

#1楼
发帖时间:2024-05-27 03:30:56   |   回复数:0
游客组