BILL36
隐世仙人♂

[2024] [大陆] [动作] [WEB-4K] 太古星神诀[高码版][第38集][国语配音/中文字幕].2024.2160p.WEB-DL.H265.HQ.AAC-LelveTV 1.42GB

-->

完整标题:太古星神诀[高码版][第38集][国语配音/中文字幕].2024.2160p.WEB-DL.H265.HQ.AAC-LelveTV 1.42GB



◎标  题 太古星神诀
◎译  名 The Secrets of Star Divine Arts
◎年  代 2024
◎产  地 中国大陆
◎类  别 动作 / 动画 / 奇幻
◎语  言 汉语普通话
◎IMDb链接 https://www.imdb.com/title//
◎豆瓣链接 https://movie.douban.com/subject/36596971/
◎编  剧 发飙的蜗牛 Tai Wang
      暗魔师 Lihua Zhang
      妖凰大人 Yao Huang
◎演  员 苗浩生 Shenghao Miao

◎简  介
    陈星乃东阳城陈家少主,父母双亡,本可在成年时继任家主之位,却被野心勃勃的代家主陈盛,设计暗害打算鸠占鹊巢。谁承想陈星大难不死,意外获得失传已久的至高功法《太古星神诀》,并学会了部分招式,强势归来,揭穿陈盛丑恶嘴脸,将其关押入牢。此事暂了,陈星未雨绸缪,仔细研究《太古星神诀》,搜罗功法所需星兽,快速成长。期间,陈星因一只星兽,救下玄阳宫宫主之女穆青岚,并在其建议下,历尽千辛拜入玄阳宫。然而刚入门,陈星就和副宗主之子剑飞空,争端不断。

部分资源为软字幕,移动端推荐播放器:MxPlayer,nPlayer,infuse ,其他播放器请自行尝试。

部分资源为软字幕,电脑端推荐播放器:PotPlayer,完美解码,KMPLAYER,其他播放器请自行尝试。

下载端推荐纯BT下载软件:qBittorrent,Bitcomet,uTorrent ,其他下载软件请自行尝试。不支持吸血迅雷。

##### MediaInfo ######
General
Complete name : The.Secrets.of.Star.Divine.Arts.S01E38.2024.2160p.WEB-DL.H265.HQ.AAC-LelveTV.mp4
Duration : 10 min 3 s
Overall bit rate mode : Variable
Overall bit rate : 20.2 Mb/s

Video
ID : 1
Format : HEVC
Format/Info : High Efficiency Video Coding
Format profile : Main [email protected]@Main
Codec ID : hev1
Codec ID/Info : High Efficiency Video Coding
Duration : 10 min 3 s
Bit rate : 19.9 Mb/s
Width : 3 840 pixels
Height : 2 160 pixels
Display aspect ratio : 16:9
Frame rate mode : Variable
Frame rate : 24.000 FPS
Minimum frame rate : 23.994 FPS
Maximum frame rate : 24.006 FPS
Color space : YUV
Chroma subsampling : 4:2:0
Bit depth : 10 bits
Bits/(Pixel*Frame) : 0.100
Stream size : 1.40 GiB (99%)
Color range : Limited
Color primaries : BT.709
Transfer characteristics : BT.709
Matrix coefficients : BT.709
Codec configuration box : hvcC

Audio
ID : 2
Format : AAC LC
Format/Info : Advanced Audio Codec Low Complexity
Codec ID : mp4a-40-2
Duration : 10 min 3 s
Bit rate mode : Variable
Bit rate : 256 kb/s
Maximum bit rate : 260 kb/s
Channel(s) : 2 channels
Channel layout : L R
Sampling rate : 44.1 kHz
Frame rate : 43.066 FPS (1024 SPF)
Compression mode : Lossy
Stream size : 18.4 MiB (1%)
Default : Yes
Alternate group : 1


点击图片可查看大图

软字幕无法在截图上展现,HDR版本/杜比视界版本截图会出现颜色异常,请使用支持的设备播放!



1 个附件 售价 大小 下载 时间

2024.2160p.WEB-DL.H265.HQ.AAC-LelveTV[1LOU.ME].torrent 0 金币 6.04K 294 次 18天前

#1楼
发帖时间:2024-05-27 03:32:37   |   回复数:0
游客组