BILL36
隐世仙人♂

[2023] [大陆] [真人秀] [WEB-1080P] 我是大美人[第06集][国语配音/中文字幕].Wo.Shi.Da.Mei.Ren.S02.2023.1080p.WEB-DL.H264.AAC-LelveTV

-->

完整标题:我是大美人[第06集][国语配音/中文字幕].Wo.Shi.Da.Mei.Ren.S02.2023.1080p.WEB-DL.H264.AAC-LelveTV 0.90GB



◎标  题 我是大美人
◎年  代 2023
◎产  地 中国大陆
◎类  别 真人秀
◎语  言 汉语普通话
◎IMDb链接 https://www.imdb.com/title//
◎豆瓣链接 https://movie.douban.com/subject/36742492/
◎演  员 沈梦辰 Mengchen Shen
      刘烨 Ye Liu

◎简  介
    《我是大美人》全新改版,召集具有青春态和专业性的青春美妆师,每期邀请拥有不同美丽诉求的女嘉宾,为其量身定制「美丽方案」。整档节目传递丰富多彩的生活方式,引领健康多元的审美理念,引导大家树立正确的消费观念,一起探索美好生活无限可能。

部分资源为软字幕,移动端推荐播放器:MxPlayer,nPlayer,infuse ,其他播放器请自行尝试。

部分资源为软字幕,电脑端推荐播放器:PotPlayer,完美解码,KMPLAYER,其他播放器请自行尝试。

下载端推荐纯BT下载软件:qBittorrent,Bitcomet,uTorrent ,其他下载软件请自行尝试。不支持吸血迅雷。

##### MediaInfo ######
General
Complete name : Wo.Shi.Da.Mei.Ren.S02E06.2023.1080p.WEB-DL.H264.AAC-LelveTV.mp4
Duration : 49 min 45 s
Overall bit rate mode : Variable
Overall bit rate : 2 584 kb/s

Video
ID : 1
Format : AVC
Format/Info : Advanced Video Codec
Format profile : High@L4
Format settings : CABAC / 4 Ref Frames
Format settings, CABAC : Yes
Format settings, Reference frames : 4 frames
Codec ID : avc1
Codec ID/Info : Advanced Video Coding
Duration : 49 min 45 s
Bit rate : 2 388 kb/s
Width : 1 920 pixels
Height : 1 080 pixels
Display aspect ratio : 16:9
Frame rate mode : Constant
Frame rate : 25.000 FPS
Color space : YUV
Chroma subsampling : 4:2:0
Bit depth : 8 bits
Scan type : Progressive
Bits/(Pixel*Frame) : 0.046
Stream size : 850 MiB (92%)
Writing library : 211111.mgtv.com
Color range : Limited
Color primaries : BT.709
Transfer characteristics : BT.709
Matrix coefficients : BT.709
Codec configuration box : avcC

Audio
ID : 2
Format : AAC LC
Format/Info : Advanced Audio Codec Low Complexity
Codec ID : mp4a-40-2
Duration : 49 min 45 s
Bit rate mode : Variable
Bit rate : 192 kb/s
Channel(s) : 2 channels
Channel layout : L R
Sampling rate : 44.1 kHz
Frame rate : 43.066 FPS (1024 SPF)
Compression mode : Lossy
Stream size : 67.5 MiB (7%)
Default : Yes
Alternate group : 1


点击图片可查看大图

软字幕无法在截图上展现,HDR版本/杜比视界版本截图会出现颜色异常,请使用支持的设备播放!



1 个附件 售价 大小 下载 时间

Wo.Shi.Da.Mei.Ren.S02.2023.1080p.WEB-DL.H264.AAC-LelveTV[1LOU.ME].torrent 0 金币 4.74K 112 次 18天前

#1楼
发帖时间:2024-05-27 03:32:51   |   回复数:0
游客组