BILL36
隐世仙人♂

[2024] [大陆] [音乐] [WEB-1080P] 歌手2024[第20240524期][国语配音/中文字幕].Singer.S09.2024.1080p.WEB-DL.H264.MPEG-ColorWEB 6.

-->

完整标题:歌手2024[第20240524期][国语配音/中文字幕].Singer.S09.2024.1080p.WEB-DL.H264.MPEG-ColorWEB 6.66GB



◎标  题 歌手2024
◎译  名 我是歌手9 / 我是歌手第九季 / 歌手 第五季
◎年  代 2024
◎产  地 中国大陆
◎类  别 音乐 / 真人秀
◎语  言 汉语普通话
◎IMDb链接 https://www.imdb.com/title//
◎豆瓣链接 https://movie.douban.com/subject/36640253/
◎演  员 那英 Ying Na
      汪苏泷 Sulong Wang
      梁龙 Long Liang
      杨丞琳 Rainie Yang
      海来阿木 Jeb
      凡希亚 Faouzia
      尚特·摩尔 Chanté Moore
      亚当·兰伯特 Adam Lambert
      刘烨 Lidia Liu
      赵一橙 Neroli
      李莎旻子 Shaminzi Li
      马萱 Xuan Ma
      李晋晔 Jinye Li
      杨杨 Yang Yang
      钱正昊 Jefferson
      阿达娃 Adawa

◎简  介
    阔别三年再次重启,国内外八位顶尖歌手竞演。

部分资源为软字幕,移动端推荐播放器:MxPlayer,nPlayer,infuse ,其他播放器请自行尝试。

部分资源为软字幕,电脑端推荐播放器:PotPlayer,完美解码,KMPLAYER,其他播放器请自行尝试。

下载端推荐纯BT下载软件:qBittorrent,Bitcomet,uTorrent ,其他下载软件请自行尝试。不支持吸血迅雷。

##### MediaInfo ######
General
Complete name : 歌手2024.Singer.S09.20240524.1080p.WEB-DL.H264.MPEG-ColorWEB.mp4
Duration : 2 h 12 min
Overall bit rate mode : Constant
Overall bit rate : 7 199 kb/s

Video
ID : 1
Format : AVC
Format/Info : Advanced Video Codec
Format profile : High@L4
Format settings : CABAC / 1 Ref Frames
Format settings, CABAC : Yes
Format settings, Reference frames : 1 frame
Format settings, GOP : M=1, N=25
Codec ID : avc1
Codec ID/Info : Advanced Video Coding
Duration : 2 h 12 min
Bit rate mode : Constant
Bit rate : 7 001 kb/s
Width : 1 920 pixels
Height : 1 080 pixels
Display aspect ratio : 16:9
Frame rate mode : Constant
Frame rate : 25.000 FPS
Standard : Component
Color space : YUV
Chroma subsampling : 4:2:0
Bit depth : 8 bits
Scan type : Progressive
Bits/(Pixel*Frame) : 0.135
Stream size : 6.47 GiB (97%)
Writing library : 2.3.58544.674002
Color range : Limited
Codec configuration box : avcC

Audio
ID : 2
Format : MPEG Audio
Format version : Version 1
Format profile : Layer 2
Codec ID : mp4a-6B
Duration : 2 h 12 min
Bit rate mode : Constant
Bit rate : 192 kb/s
Channel(s) : 2 channels
Sampling rate : 48.0 kHz
Compression mode : Lossy
Stream size : 182 MiB (3%)
Language : Chinese
Default : Yes
Alternate group : 1


点击图片可查看大图

软字幕无法在截图上展现,HDR版本/杜比视界版本截图会出现颜色异常,请使用支持的设备播放!



1 个附件 售价 大小 下载 时间

Singer.S09.2024.1080p.WEB-DL.H264.MPEG-ColorWEB[1LOU.ME].torrent 0 金币 19.14K 868 次 18天前

#1楼
发帖时间:2024-05-27 07:42:13   |   回复数:0
游客组