BILL36
隐世仙人♂

[2024] [大陆] [音乐] [WEB-1080P] 乘风2024[第20240517,20240518期][国语配音/中文字幕].2024.1080p.WEB-DL.H264.MPEG-ColorWEB 9.14

-->

完整标题:乘风2024[第20240517,20240518期][国语配音/中文字幕].2024.1080p.WEB-DL.H264.MPEG-ColorWEB 9.14GB



◎标  题 乘风2024
◎译  名 乘风破浪5 / 浪姐5 / 乘风破浪的姐姐 第五季 / 乘风破浪的姐姐5
◎年  代 2024
◎产  地 中国大陆
◎类  别 音乐 / 真人秀
◎语  言 汉语普通话
◎IMDb链接 https://www.imdb.com/title//
◎豆瓣链接 https://movie.douban.com/subject/36536537/
◎演  员 韩雪 Cecilia Han
      朱丹 Dan Zhu
      王琳 Lin Wang
      郭碧婷 Bea Hayden Kuo
      尚雯婕 Lauren Shang
      何洁 Jie He
      戚薇 Stephy Qi
      杨谨华 Chin Hua Yang
      苗苗 Miao Miao
      蔡文静 Wenjing Cai
      柳岩 Yan Liu
      刘忻 Xin Liu
      郭书瑶 Shu-yau Kuo
      郑妮可 Nicole Jung
      周蕙 Huei Chou
      郭颖 Yamy
      张予曦 Yuxi Zhang
      管乐 Yue Guan
      陈丽君 Lijun Chen
      黛薇卡·霍内 Davika Hoorne
      孙夏玲 Suni Hạ Linh
      莎夏·斯隆 Sasha Sloan
      玛丽·克莱姆布雷瑞 Mari Kraymbreri
      乔伊丝·若纳唐 Joyce Jonathan
      周扬青 Yangqing Zhou
      韩懿莹 Yiying Han
      蔡诗芸 Shiyun Cai
      谢金燕 Jeannie Tse
      萨顶顶 Dingding Sa
      袁娅维 Tia Ray
      赵奕欢 Yihuan Zhao
      陈昊宇 Amy Chen
      吴恙 Yang Wu
      李溪芮 Sierra Li
      李嘉格 Jiage Li
      万妮达 Vinida
      黄晓明 Xiaoming Huang

◎简  介
    定位为国际女性文化交流与音乐竞演综艺节目。节目将“传播文化自信”与“加深国际交流”两大核心贯彻节目始终,真实记录36位来自世界各国的拥有歌唱、舞蹈及舞台梦想的全年龄段女性,在乘风舞台上完成不同形式的合作演绎。

部分资源为软字幕,移动端推荐播放器:MxPlayer,nPlayer,infuse ,其他播放器请自行尝试。

部分资源为软字幕,电脑端推荐播放器:PotPlayer,完美解码,KMPLAYER,其他播放器请自行尝试。

下载端推荐纯BT下载软件:qBittorrent,Bitcomet,uTorrent ,其他下载软件请自行尝试。不支持吸血迅雷。

##### MediaInfo ######
General
Complete name : 乘风2024.Sisters.Who.Make.Waves.S05.20240517.1080p.WEB-DL.H264.MPEG-ColorWEB.mp4
Duration : 1 h 46 min
Overall bit rate mode : Constant
Overall bit rate : 7 199 kb/s

Video
ID : 1
Format : AVC
Format/Info : Advanced Video Codec
Format profile : High@L4
Format settings : CABAC / 1 Ref Frames
Format settings, CABAC : Yes
Format settings, Reference frames : 1 frame
Format settings, GOP : M=1, N=25
Codec ID : avc1
Codec ID/Info : Advanced Video Coding
Duration : 1 h 46 min
Bit rate mode : Constant
Bit rate : 7 001 kb/s
Width : 1 920 pixels
Height : 1 080 pixels
Display aspect ratio : 16:9
Frame rate mode : Constant
Frame rate : 25.000 FPS
Standard : Component
Color space : YUV
Chroma subsampling : 4:2:0
Bit depth : 8 bits
Scan type : Progressive
Bits/(Pixel*Frame) : 0.135
Stream size : 5.22 GiB (97%)
Writing library : 2.3.58544.674002
Color range : Limited
Codec configuration box : avcC

Audio
ID : 2
Format : MPEG Audio
Format version : Version 1
Format profile : Layer 2
Codec ID : mp4a-6B
Duration : 1 h 46 min
Bit rate mode : Constant
Bit rate : 192 kb/s
Channel(s) : 2 channels
Sampling rate : 48.0 kHz
Compression mode : Lossy
Stream size : 147 MiB (3%)
Language : Chinese
Default : Yes
Alternate group : 1


点击图片可查看大图

软字幕无法在截图上展现,HDR版本/杜比视界版本截图会出现颜色异常,请使用支持的设备播放!



1 个附件 售价 大小 下载 时间

2024.1080p.WEB-DL.H264.MPEG-ColorWEB[1LOU.ME].torrent 0 金币 25.48K 277 次 18天前

#1楼
发帖时间:2024-05-27 09:12:37   |   回复数:0
游客组