BILL36
隐世仙人♂

[2023] [大陆] [真人秀] [WEB-1080P] 密室大逃脱 第五季[第20230614,20230621,20230628,期等...][共14期][国语配音/中文字幕].2023.1080p.WEB-DL.

-->

完整标题:密室大逃脱 第五季[第20230614,20230621,20230628,期等...][共14期][国语配音/中文字幕].2023.1080p.WEB-DL.H264.MPEG-ColorWEB 79.34GB



◎标  题 密室大逃脱 第五季
◎译  名 密逃5 / 密室大逃脱5 / 密室大逃脱 无限流季
◎年  代 2023
◎产  地 中国大陆
◎类  别 真人秀
◎语  言 汉语普通话
◎IMDb链接 https://www.imdb.com/title//
◎豆瓣评分 7.5/10 (10173人评价)
◎豆瓣链接 https://movie.douban.com/subject/36245694/
◎导  演 晏吉 Ji Yan
◎编  剧 莫乃珊 Naishan Mo
◎演  员 杨幂 Mi Yang
      大张伟 Wowkie Zhang
      黄明昊 Justin
      许凯 Kai Xu
      张国伟 Guowei Zhang
      谢依霖 Yilin Sie
      郭麒麟 Kevin Guo
      彭昱畅 Yuchang Peng
      陈伟霆 William Chan
      马柏全 Boquan Ma

◎简  介
    《密室大逃脱5》之无限流季,节目将打造独具想象力的无限流异世界,冲破次元界限,链接多重时空。密逃团新老搭配,化身故事主角,探索身份之谜,在冲破次元的异世界场景中穿梭冒险,在全新升级的策略游戏机制中闯关成功。

部分资源为软字幕,移动端推荐播放器:MxPlayer,nPlayer,infuse ,其他播放器请自行尝试。

部分资源为软字幕,电脑端推荐播放器:PotPlayer,完美解码,KMPLAYER,其他播放器请自行尝试。

下载端推荐纯BT下载软件:qBittorrent,Bitcomet,uTorrent ,其他下载软件请自行尝试。不支持吸血迅雷。

##### MediaInfo ######
General
Complete name : 密室大逃脱 第五季.Great.Escape.S05.20230614.1080p.WEB-DL.H264.MPEG-ColorWEB.mp4
Duration : 1 h 44 min
Overall bit rate mode : Constant
Overall bit rate : 7 199 kb/s

Video
ID : 1
Format : AVC
Format/Info : Advanced Video Codec
Format profile : High@L4
Format settings : CABAC / 1 Ref Frames
Format settings, CABAC : Yes
Format settings, Reference frames : 1 frame
Format settings, GOP : M=1, N=25
Codec ID : avc1
Codec ID/Info : Advanced Video Coding
Duration : 1 h 44 min
Bit rate mode : Constant
Bit rate : 7 002 kb/s
Width : 1 920 pixels
Height : 1 080 pixels
Display aspect ratio : 16:9
Frame rate mode : Constant
Frame rate : 25.000 FPS
Standard : Component
Color space : YUV
Chroma subsampling : 4:2:0
Bit depth : 8 bits
Scan type : Progressive
Bits/(Pixel*Frame) : 0.135
Stream size : 5.13 GiB (97%)
Writing library : 2.3.58544.674002
Color range : Limited
Codec configuration box : avcC

Audio
ID : 2
Format : MPEG Audio
Format version : Version 1
Format profile : Layer 2
Codec ID : mp4a-6B
Duration : 1 h 44 min
Bit rate mode : Constant
Bit rate : 192 kb/s
Channel(s) : 2 channels
Sampling rate : 48.0 kHz
Compression mode : Lossy
Stream size : 144 MiB (3%)
Language : Chinese
Default : Yes
Alternate group : 1


点击图片可查看大图

软字幕无法在截图上展现,HDR版本/杜比视界版本截图会出现颜色异常,请使用支持的设备播放!



1 个附件 售价 大小 下载 时间

2023.1080p.WEB-DL.H264.MPEG-ColorWEB[1LOU.ME].torrent 0 金币 202.44K 224 次 18天前

#1楼
发帖时间:2024-05-27 09:12:51   |   回复数:0
游客组