BILL36
隐世仙人♂

[2024] [美国] [剧情] [WEB-1080P] 降世神通:最后的气宗[第01-06集][国语配音/中文字幕].1080p.NF.WEB-DL.DDP.5.1.Atmos.H.264-BlackTV 14.38

-->

完整标题:降世神通:最后的气宗[第01-06集][国语配音/中文字幕].1080p.NF.WEB-DL.DDP.5.1.Atmos.H.264-BlackTV 14.38GB



◎标  题 降世神通:最后的气宗
◎译  名 降世神通真人版剧集
◎片  名 Avatar: The Last Airbender
◎年  代 2024
◎产  地 美国
◎类  别 剧情 / 喜剧 / 动作 / 悬疑 / 奇幻 / 冒险
◎语  言 英语
◎IMDb评分 7.5/10 (12024人评价)
◎IMDb链接 https://www.imdb.com/title/tt9018736/
◎豆瓣链接 https://movie.douban.com/subject/30329719/
◎导  演 迈克尔·戈伊 Michael Goi
      罗丝安妮·梁 Roseanne Liang
      杰特·威尔金森 Jet Wilkinson
◎编  剧 迈克尔·但丁·迪马蒂诺 Michael Dante DiMartino
      阿尔伯特·金 Albert Kim
      布莱恩·科尼祖克 Bryan Konietzko
◎演  员 戈登·科米尔 Gordon Cormier
      齐亚文提奥 Kiawentiio
      伊恩·欧斯利 Ian Ousley
      达拉斯·刘 Dallas Liu
      伊丽莎白·于 Elizabeth Yu
      李善亨 Paul Sun-Hyung Lee
      金大贤 Daniel Dae Kim
      张至仪 Maria Zhang
      梁振邦 Ken Leung
      林继修 Lim Kay Siu
      伊冯娜·查普曼 Yvonne Chapman
      富田谭玲 Tamlyn Tomita
      凯西·坎普-霍里内克 Casey Camp-Horinek
      赵雅顿 Arden Cho
      玉田百名 Momona Tamada
      乌特卡什·安邦德卡尔 Utkarsh Ambudkar
      丹尼·朴迪 Danny Pudi
      詹姆士·谢 James Sie
      A·马丁内斯 A Martinez
      Ruy Iskandar
      塔莉娅·陈 Thalia Tran
      乔尔·蒙格朗 Joel Montgrand
      Jayden Zhang
      纳森尼尔·阿坎德 Nathaniel Arcand
      李升熙 C.S. Lee

◎简  介
    水、土、火、气。四个国家曾经和睦相处,四种元素的主宰降世神通维持着他们之间的和平。但是当烈火国进攻并消灭了气和牧族之后,一切都改变了 — 这是烈火国征服世界的第一步。由于目前的神通化身尚未出现,世界已经失去了希望。但是,当年轻的气和牧族安昂(戈登·科米尔饰演)重新觉醒,成为下一个转世神通后,就像黑暗中的一道光,希望出现了。安昂是他同类中的最后一人,与他的新朋友索卡(伊恩·欧斯利饰演)和卡塔拉(齐亚文提奥饰演)这对兄妹,以及南方水族部落一起开始了一场奇幻而惊心动魄的探索之旅,拯救世界,反击烈火国国王奥赛(金大贤饰演)的可怕攻击。但王子祖科(达拉斯·刘饰演)决心抓捕他们,让他们的任务变得格外艰巨。一行人沿途会遇到许多盟友和丰富多彩的角色,并需要向他们寻求帮助。艾伯特·金(《沉睡谷》《妮基塔》)担任剧集主管、监制和编剧。贾巴尔·赖萨尼(《迷失太空》《怪奇物语》)和迈克尔·戈伊担任监制和导演,罗丝安妮·梁(同时担任联合监制)和杰特·威尔金森也担任导演。Rideback 的丹·林(《乐高大电影》《阿拉丁》)和琳赛·利贝拉托雷(《德州巡警》)担任监制。

部分资源为软字幕,移动端推荐播放器:MxPlayer,nPlayer,infuse ,其他播放器请自行尝试。

部分资源为软字幕,电脑端推荐播放器:PotPlayer,完美解码,KMPLAYER,其他播放器请自行尝试。

下载端推荐纯BT下载软件:qBittorrent,Bitcomet,uTorrent ,其他下载软件请自行尝试。不支持吸血迅雷。

##### MediaInfo ######
General
Unique ID : 337247913341382112880249002707136949410 (0xFDB795E33CF2D9B5AF9509A0E6C22CA2)
Complete name : Avatar.The.Last.Airbender.S01E01.Aang.1080p.NF.WEB-DL.DDP.5.1.Atmos.H.264-BlackTV.mkv
Duration : 1 h 3 min
Overall bit rate mode : Variable
Overall bit rate : 5 345 kb/s

Video
ID : 1
Format : AVC
Format/Info : Advanced Video Codec
Format profile : Main@L4
Format settings : CABAC / 3 Ref Frames
Format settings, CABAC : Yes
Format settings, Reference frames : 3 frames
Codec ID : V_MPEG4/ISO/AVC
Duration : 1 h 3 min
Bit rate mode : Variable
Bit rate : 4 569 kb/s
Nominal bit rate : 5 000 kb/s
Maximum bit rate : 7 500 kb/s
Width : 1 920 pixels
Height : 1 080 pixels
Display aspect ratio : 16:9
Frame rate mode : Constant
Frame rate : 24.000 FPS
Color space : YUV
Chroma subsampling : 4:2:0
Bit depth : 8 bits
Scan type : Progressive
Bits/(Pixel*Frame) : 0.092
Stream size : 2.04 GiB (85%)
Writing library : x264 core 148 r2727 7d026e8
Encoding settings : cabac=1 / ref=3 / deblock=1:0:0 / analyse=0x1:0x111 / me=umh / subme=10 / psy=1 / psy_rd=1.00:0.00 / mixed_ref=1 / me_range=24 / chroma_me=1 / trellis=2 / 8x8dct=0 / cqm=0 / deadzone=21,11 / fast_pskip=1 / chroma_qp_offset=-2 / threads=6 / lookahead_threads=1 / sliced_threads=0 / nr=0 / decimate=1 / interlaced=0 / bluray_compat=0 / stitchable=1 / constrained_intra=0 / bframes=2 / b_pyramid=0 / b_adapt=2 / b_bias=0 / direct=3 / weightb=1 / open_gop=0 / weightp=2 / keyint=240 / keyint_min=121 / scenecut=0 / intra_refresh=0 / rc_lookahead=48 / rc=2pass / mbtree=1 / bitrate=5000 / ratetol=1.0 / qcomp=0.50 / qpmin=6 / qpmax=51 / qpstep=4 / cplxblur=20.0 / qblur=0.5 / vbv_maxrate=7500 / vbv_bufsize=10000 / nal_hrd=vbr / filler=0 / ip_ratio=1.40 / aq=1:1.00
Language : English
Default : Yes
Forced : No

Audio
ID : 2
Format : E-AC-3 JOC
Format/Info : Enhanced AC-3 with Joint Object Coding
Commercial name : Dolby Digital Plus with Dolby Atmos
Codec ID : A_EAC3
Duration : 1 h 3 min
Bit rate mode : Constant
Bit rate : 768 kb/s
Channel(s) : 6 channels
Channel layout : L R C LFE Ls Rs
Sampling rate : 48.0 kHz
Frame rate : 31.250 FPS (1536 SPF)
Compression mode : Lossy
Stream size : 351 MiB (14%)
Language : English
Service kind : Complete Main
Default : Yes
Forced : No
Complexity index : 16
Number of dynamic objects : 15
Bed channel count : 1 channel
Bed channel configuration : LFE

Text #1
ID : 3
Format : UTF-8
Codec ID : S_TEXT/UTF8
Codec ID/Info : UTF-8 Plain Text
Duration : 57 min 35 s
Bit rate : 55 b/s
Frame rate : 0.248 FPS
Count of elements : 858
Stream size : 23.6 KiB (0%)
Title : SDH
Language : English
Default : No
Forced : No

Text #2
ID : 4
Format : UTF-8
Codec ID : S_TEXT/UTF8
Codec ID/Info : UTF-8 Plain Text
Duration : 59 min 9 s
Bit rate : 39 b/s
Frame rate : 0.161 FPS
Count of elements : 571
Stream size : 17.0 KiB (0%)
Title : Simplified
Language : Chinese
Default : No
Forced : No

Text #3
ID : 5
Format : UTF-8
Codec ID : S_TEXT/UTF8
Codec ID/Info : UTF-8 Plain Text
Duration : 59 min 9 s
Bit rate : 34 b/s
Frame rate : 0.170 FPS
Count of elements : 604
Stream size : 15.2 KiB (0%)
Title : Traditional
Language : Chinese
Default : No
Forced : No

Text #4
ID : 6
Format : UTF-8
Codec ID : S_TEXT/UTF8
Codec ID/Info : UTF-8 Plain Text
Duration : 57 min 5 s
Bit rate : 40 b/s
Frame rate : 0.116 FPS
Count of elements : 399
Stream size : 16.8 KiB (0%)
Title : Traditional
Language : Chinese
Default : No
Forced : No

Text #5
ID : 7
Format : UTF-8
Codec ID : S_TEXT/UTF8
Codec ID/Info : UTF-8 Plain Text
Duration : 59 min 10 s
Bit rate : 71 b/s
Frame rate : 0.170 FPS
Count of elements : 604
Stream size : 31.1 KiB (0%)
Language : Arabic
Default : No
Forced : No

Text #6
ID : 8
Format : UTF-8
Codec ID : S_TEXT/UTF8
Codec ID/Info : UTF-8 Plain Text
Duration : 59 min 9 s
Bit rate : 34 b/s
Frame rate : 0.153 FPS
Count of elements : 542
Stream size : 14.8 KiB (0%)
Language : Catalan
Default : No
Forced : No

Text #7
ID : 9
Format : UTF-8
Codec ID : S_TEXT/UTF8
Codec ID/Info : UTF-8 Plain Text
Duration : 57 min 8 s
Bit rate : 44 b/s
Frame rate : 0.159 FPS
Count of elements : 546
Stream size : 18.5 KiB (0%)
Language : Catalan
Default : No
Forced : No

Text #8
ID : 10
Format : UTF-8
Codec ID : S_TEXT/UTF8
Codec ID/Info : UTF-8 Plain Text
Duration : 59 min 9 s
Bit rate : 39 b/s
Frame rate : 0.161 FPS
Count of elements : 570
Stream size : 17.1 KiB (0%)
Language : Czech
Default : No
Forced : No

Text #9
ID : 11
Format : UTF-8
Codec ID : S_TEXT/UTF8
Codec ID/Info : UTF-8 Plain Text
Duration : 57 min 8 s
Bit rate : 40 b/s
Frame rate : 0.141 FPS
Count of elements : 485
Stream size : 17.2 KiB (0%)
Language : Czech
Default : No
Forced : No

Text #10
ID : 12
Format : UTF-8
Codec ID : S_TEXT/UTF8
Codec ID/Info : UTF-8 Plain Text
Duration : 59 min 9 s
Bit rate : 37 b/s
Frame rate : 0.150 FPS
Count of elements : 533
Stream size : 16.1 KiB (0%)
Language : Danish
Default : No
Forced : No

Text #11
ID : 13
Format : UTF-8
Codec ID : S_TEXT/UTF8
Codec ID/Info : UTF-8 Plain Text
Duration : 57 min 7 s
Bit rate : 50 b/s
Frame rate : 0.131 FPS
Count of elements : 449
Stream size : 21.3 KiB (0%)
Language : Danish
Default : No
Forced : No

Text #12
ID : 14
Format : UTF-8
Codec ID : S_TEXT/UTF8
Codec ID/Info : UTF-8 Plain Text
Duration : 57 min 37 s
Bit rate : 62 b/s
Frame rate : 0.247 FPS
Count of elements : 854
Stream size : 26.5 KiB (0%)
Title : SDH
Language : German
Default : No
Forced : No

Text #13
ID : 15
Format : UTF-8
Codec ID : S_TEXT/UTF8
Codec ID/Info : UTF-8 Plain Text
Duration : 59 min 8 s
Bit rate : 42 b/s
Frame rate : 0.154 FPS
Count of elements : 545
Stream size : 18.5 KiB (0%)
Language : German
Default : No
Forced : No

Text #14
ID : 16
Format : UTF-8
Codec ID : S_TEXT/UTF8
Codec ID/Info : UTF-8 Plain Text
Duration : 57 min 8 s
Bit rate : 49 b/s
Frame rate : 0.165 FPS
Count of elements : 566
Stream size : 20.5 KiB (0%)
Language : German
Default : No
Forced : No

Text #15
ID : 17
Format : UTF-8
Codec ID : S_TEXT/UTF8
Codec ID/Info : UTF-8 Plain Text
Duration : 59 min 9 s
Bit rate : 69 b/s
Frame rate : 0.161 FPS
Count of elements : 572
Stream size : 29.9 KiB (0%)
Language : Greek
Default : No
Forced : No

Text #16
ID : 18
Format : UTF-8
Codec ID : S_TEXT/UTF8
Codec ID/Info : UTF-8 Plain Text
Duration : 57 min 27 s
Bit rate : 75 b/s
Frame rate : 0.120 FPS
Count of elements : 412
Stream size : 31.6 KiB (0%)
Language : Greek
Default : No
Forced : No

Text #17
ID : 19
Format : UTF-8
Codec ID : S_TEXT/UTF8
Codec ID/Info : UTF-8 Plain Text
Duration : 57 min 38 s
Bit rate : 53 b/s
Frame rate : 0.245 FPS
Count of elements : 848
Stream size : 22.4 KiB (0%)
Title : Latin America (SDH)
Language : Spanish
Default : No
Forced : No

Text #18
ID : 20
Format : UTF-8
Codec ID : S_TEXT/UTF8
Codec ID/Info : UTF-8 Plain Text
Duration : 57 min 8 s
Bit rate : 43 b/s
Frame rate : 0.186 FPS
Count of elements : 637
Stream size : 18.3 KiB (0%)
Title : Latin America
Language : Spanish
Default : No
Forced : No

Text #19
ID : 21
Format : UTF-8
Codec ID : S_TEXT/UTF8
Codec ID/Info : UTF-8 Plain Text
Duration : 59 min 9 s
Bit rate : 38 b/s
Frame rate : 0.158 FPS
Count of elements : 562
Stream size : 16.8 KiB (0%)
Title : Latin America
Language : Spanish
Default : No
Forced : No

Text #20
ID : 22
Format : UTF-8
Codec ID : S_TEXT/UTF8
Codec ID/Info : UTF-8 Plain Text
Duration : 59 min 33 s
Bit rate : 58 b/s
Frame rate : 0.263 FPS
Count of elements : 939
Stream size : 25.5 KiB (0%)
Title : SDH
Language : Spanish
Default : No
Forced : No

Text #21
ID : 23
Format : UTF-8
Codec ID : S_TEXT/UTF8
Codec ID/Info : UTF-8 Plain Text
Duration : 57 min 8 s
Bit rate : 43 b/s
Frame rate : 0.178 FPS
Count of elements : 609
Stream size : 18.3 KiB (0%)
Language : Spanish
Default : No
Forced : No

Text #22
ID : 24
Format : UTF-8
Codec ID : S_TEXT/UTF8
Codec ID/Info : UTF-8 Plain Text
Duration : 59 min 8 s
Bit rate : 37 b/s
Frame rate : 0.158 FPS
Count of elements : 562
Stream size : 16.3 KiB (0%)
Language : Spanish
Default : No
Forced : No

Text #23
ID : 25
Format : UTF-8
Codec ID : S_TEXT/UTF8
Codec ID/Info : UTF-8 Plain Text
Duration : 57 min 6 s
Bit rate : 37 b/s
Frame rate : 0.116 FPS
Count of elements : 398
Stream size : 15.7 KiB (0%)
Language : Basque
Default : No
Forced : No

Text #24
ID : 26
Format : UTF-8
Codec ID : S_TEXT/UTF8
Codec ID/Info : UTF-8 Plain Text
Duration : 59 min 9 s
Bit rate : 37 b/s
Frame rate : 0.159 FPS
Count of elements : 566
Stream size : 16.3 KiB (0%)
Language : Basque
Default : No
Forced : No

Text #25
ID : 27
Format : UTF-8
Codec ID : S_TEXT/UTF8
Codec ID/Info : UTF-8 Plain Text
Duration : 59 min 9 s
Bit rate : 36 b/s
Frame rate : 0.132 FPS
Count of elements : 470
Stream size : 15.7 KiB (0%)
Language : Finnish
Default : No
Forced : No

Text #26
ID : 28
Format : UTF-8
Codec ID : S_TEXT/UTF8
Codec ID/Info : UTF-8 Plain Text
Duration : 57 min 8 s
Bit rate : 38 b/s
Frame rate : 0.173 FPS
Count of elements : 594
Stream size : 16.0 KiB (0%)
Language : Finnish
Default : No
Forced : No

Text #27
ID : 29
Format : UTF-8
Codec ID : S_TEXT/UTF8
Codec ID/Info : UTF-8 Plain Text
Duration : 59 min 9 s
Bit rate : 42 b/s
Frame rate : 0.154 FPS
Count of elements : 548
Stream size : 18.6 KiB (0%)
Language : fil
Default : No
Forced : No

Text #28
ID : 30
Format : UTF-8
Codec ID : S_TEXT/UTF8
Codec ID/Info : UTF-8 Plain Text
Duration : 56 min 57 s
Bit rate : 45 b/s
Frame rate : 0.126 FPS
Count of elements : 432
Stream size : 19.2 KiB (0%)
Language : fil
Default : No
Forced : No

Text #29
ID : 31
Format : UTF-8
Codec ID : S_TEXT/UTF8
Codec ID/Info : UTF-8 Plain Text
Duration : 57 min 35 s
Bit rate : 63 b/s
Frame rate : 0.243 FPS
Count of elements : 839
Stream size : 26.9 KiB (0%)
Title : SDH
Language : French
Default : No
Forced : No

Text #30
ID : 32
Format : UTF-8
Codec ID : S_TEXT/UTF8
Codec ID/Info : UTF-8 Plain Text
Duration : 57 min 8 s
Bit rate : 49 b/s
Frame rate : 0.171 FPS
Count of elements : 587
Stream size : 20.8 KiB (0%)
Language : French
Default : No
Forced : No

Text #31
ID : 33
Format : UTF-8
Codec ID : S_TEXT/UTF8
Codec ID/Info : UTF-8 Plain Text
Duration : 59 min 9 s
Bit rate : 39 b/s
Frame rate : 0.149 FPS
Count of elements : 528
Stream size : 17.2 KiB (0%)
Language : French
Default : No
Forced : No

Text #32
ID : 34
Format : UTF-8
Codec ID : S_TEXT/UTF8
Codec ID/Info : UTF-8 Plain Text
Duration : 59 min 9 s
Bit rate : 37 b/s
Frame rate : 0.156 FPS
Count of elements : 555
Stream size : 16.4 KiB (0%)
Language : Galician
Default : No
Forced : No

Text #33
ID : 35
Format : UTF-8
Codec ID : S_TEXT/UTF8
Codec ID/Info : UTF-8 Plain Text
Duration : 59 min 9 s
Bit rate : 63 b/s
Frame rate : 0.165 FPS
Count of elements : 585
Stream size : 27.5 KiB (0%)
Language : Hebrew
Default : No
Forced : No

Text #34
ID : 36
Format : UTF-8
Codec ID : S_TEXT/UTF8
Codec ID/Info : UTF-8 Plain Text
Duration : 59 min 9 s
Bit rate : 35 b/s
Frame rate : 0.157 FPS
Count of elements : 556
Stream size : 15.5 KiB (0%)
Language : Croatian
Default : No
Forced : No

Text #35
ID : 37
Format : UTF-8
Codec ID : S_TEXT/UTF8
Codec ID/Info : UTF-8 Plain Text
Duration : 57 min 8 s
Bit rate : 38 b/s
Frame rate : 0.115 FPS
Count of elements : 395
Stream size : 16.2 KiB (0%)
Language : Croatian
Default : No
Forced : No

Text #36
ID : 38
Format : UTF-8
Codec ID : S_TEXT/UTF8
Codec ID/Info : UTF-8 Plain Text
Duration : 57 min 8 s
Bit rate : 42 b/s
Frame rate : 0.127 FPS
Count of elements : 434
Stream size : 17.8 KiB (0%)
Language : Hungarian
Default : No
Forced : No

Text #37
ID : 39
Format : UTF-8
Codec ID : S_TEXT/UTF8
Codec ID/Info : UTF-8 Plain Text
Duration : 59 min 9 s
Bit rate : 41 b/s
Frame rate : 0.150 FPS
Count of elements : 531
Stream size : 18.0 KiB (0%)
Language : Hungarian
Default : No
Forced : No

Text #38
ID : 40
Format : UTF-8
Codec ID : S_TEXT/UTF8
Codec ID/Info : UTF-8 Plain Text
Duration : 59 min 12 s
Bit rate : 37 b/s
Frame rate : 0.160 FPS
Count of elements : 567
Stream size : 16.4 KiB (0%)
Language : Indonesian
Default : No
Forced : No

Text #39
ID : 41
Format : UTF-8
Codec ID : S_TEXT/UTF8
Codec ID/Info : UTF-8 Plain Text
Duration : 57 min 8 s
Bit rate : 41 b/s
Frame rate : 0.122 FPS
Count of elements : 417
Stream size : 17.5 KiB (0%)
Language : Indonesian
Default : No
Forced : No

Text #40
ID : 42
Format : UTF-8
Codec ID : S_TEXT/UTF8
Codec ID/Info : UTF-8 Plain Text
Duration : 59 min 33 s
Bit rate : 53 b/s
Frame rate : 0.249 FPS
Count of elements : 891
Stream size : 23.4 KiB (0%)
Title : SDH
Language : Italian
Default : No
Forced : No

Text #41
ID : 43
Format : UTF-8
Codec ID : S_TEXT/UTF8
Codec ID/Info : UTF-8 Plain Text
Duration : 59 min 9 s
Bit rate : 38 b/s
Frame rate : 0.161 FPS
Count of elements : 573
Stream size : 16.7 KiB (0%)
Language : Italian
Default : No
Forced : No

Text #42
ID : 44
Format : UTF-8
Codec ID : S_TEXT/UTF8
Codec ID/Info : UTF-8 Plain Text
Duration : 57 min 8 s
Bit rate : 41 b/s
Frame rate : 0.170 FPS
Count of elements : 582
Stream size : 17.4 KiB (0%)
Language : Italian
Default : No
Forced : No

Text #43
ID : 45
Format : UTF-8
Codec ID : S_TEXT/UTF8
Codec ID/Info : UTF-8 Plain Text
Duration : 59 min 9 s
Bit rate : 36 b/s
Frame rate : 0.167 FPS
Count of elements : 593
Stream size : 15.6 KiB (0%)
Language : Japanese
Default : No
Forced : No

Text #44
ID : 46
Format : UTF-8
Codec ID : S_TEXT/UTF8
Codec ID/Info : UTF-8 Plain Text
Duration : 59 min 9 s
Bit rate : 48 b/s
Frame rate : 0.162 FPS
Count of elements : 575
Stream size : 21.2 KiB (0%)
Language : Korean
Default : No
Forced : No

Text #45
ID : 47
Format : UTF-8
Codec ID : S_TEXT/UTF8
Codec ID/Info : UTF-8 Plain Text
Duration : 57 min 8 s
Bit rate : 49 b/s
Frame rate : 0.189 FPS
Count of elements : 647
Stream size : 20.9 KiB (0%)
Language : Korean
Default : No
Forced : No

Text #46
ID : 48
Format : UTF-8
Codec ID : S_TEXT/UTF8
Codec ID/Info : UTF-8 Plain Text
Duration : 57 min 8 s
Bit rate : 39 b/s
Frame rate : 0.120 FPS
Count of elements : 410
Stream size : 16.5 KiB (0%)
Language : Malay
Default : No
Forced : No

Text #47
ID : 49
Format : UTF-8
Codec ID : S_TEXT/UTF8
Codec ID/Info : UTF-8 Plain Text
Duration : 59 min 9 s
Bit rate : 39 b/s
Frame rate : 0.162 FPS
Count of elements : 575
Stream size : 17.1 KiB (0%)
Language : Malay
Default : No
Forced : No

Text #48
ID : 50
Format : UTF-8
Codec ID : S_TEXT/UTF8
Codec ID/Info : UTF-8 Plain Text
Duration : 59 min 9 s
Bit rate : 37 b/s
Frame rate : 0.138 FPS
Count of elements : 491
Stream size : 16.1 KiB (0%)
Language : Norwegian Bokmal
Default : No
Forced : No

Text #49
ID : 51
Format : UTF-8
Codec ID : S_TEXT/UTF8
Codec ID/Info : UTF-8 Plain Text
Duration : 56 min 41 s
Bit rate : 46 b/s
Frame rate : 0.120 FPS
Count of elements : 407
Stream size : 19.1 KiB (0%)
Language : Norwegian Bokmal
Default : No
Forced : No

Text #50
ID : 52
Format : UTF-8
Codec ID : S_TEXT/UTF8
Codec ID/Info : UTF-8 Plain Text
Duration : 59 min 9 s
Bit rate : 37 b/s
Frame rate : 0.136 FPS
Count of elements : 481
Stream size : 16.3 KiB (0%)
Language : Dutch
Default : No
Forced : No

Text #51
ID : 53
Format : UTF-8
Codec ID : S_TEXT/UTF8
Codec ID/Info : UTF-8 Plain Text
Duration : 57 min 35 s
Bit rate : 54 b/s
Frame rate : 0.245 FPS
Count of elements : 847
Stream size : 22.8 KiB (0%)
Title : SDH
Language : Polish
Default : No
Forced : No

Text #52
ID : 54
Format : UTF-8
Codec ID : S_TEXT/UTF8
Codec ID/Info : UTF-8 Plain Text
Duration : 59 min 9 s
Bit rate : 39 b/s
Frame rate : 0.161 FPS
Count of elements : 571
Stream size : 17.2 KiB (0%)
Language : Polish
Default : No
Forced : No

Text #53
ID : 55
Format : UTF-8
Codec ID : S_TEXT/UTF8
Codec ID/Info : UTF-8 Plain Text
Duration : 57 min 5 s
Bit rate : 41 b/s
Frame rate : 0.120 FPS
Count of elements : 410
Stream size : 17.4 KiB (0%)
Language : Polish
Default : No
Forced : No

Text #54
ID : 56
Format : UTF-8
Codec ID : S_TEXT/UTF8
Codec ID/Info : UTF-8 Plain Text
Duration : 59 min 32 s
Bit rate : 57 b/s
Frame rate : 0.237 FPS
Count of elements : 847
Stream size : 25.0 KiB (0%)
Title : Brazil (SDH)
Language : Portuguese
Default : No
Forced : No

Text #55
ID : 57
Format : UTF-8
Codec ID : S_TEXT/UTF8
Codec ID/Info : UTF-8 Plain Text
Duration : 57 min 8 s
Bit rate : 43 b/s
Frame rate : 0.168 FPS
Count of elements : 577
Stream size : 18.1 KiB (0%)
Title : Brazil
Language : Portuguese
Default : No
Forced : No

Text #56
ID : 58
Format : UTF-8
Codec ID : S_TEXT/UTF8
Codec ID/Info : UTF-8 Plain Text
Duration : 59 min 9 s
Bit rate : 39 b/s
Frame rate : 0.164 FPS
Count of elements : 581
Stream size : 17.2 KiB (0%)
Title : Brazil
Language : Portuguese
Default : No
Forced : No

Text #57
ID : 59
Format : UTF-8
Codec ID : S_TEXT/UTF8
Codec ID/Info : UTF-8 Plain Text
Duration : 59 min 9 s
Bit rate : 41 b/s
Frame rate : 0.153 FPS
Count of elements : 542
Stream size : 18.0 KiB (0%)
Language : Portuguese
Default : No
Forced : No

Text #58
ID : 60
Format : UTF-8
Codec ID : S_TEXT/UTF8
Codec ID/Info : UTF-8 Plain Text
Duration : 57 min 8 s
Bit rate : 44 b/s
Frame rate : 0.157 FPS
Count of elements : 539
Stream size : 18.6 KiB (0%)
Language : Portuguese
Default : No
Forced : No

Text #59
ID : 61
Format : UTF-8
Codec ID : S_TEXT/UTF8
Codec ID/Info : UTF-8 Plain Text
Duration : 57 min 8 s
Bit rate : 41 b/s
Frame rate : 0.143 FPS
Count of elements : 491
Stream size : 17.2 KiB (0%)
Language : Romanian
Default : No
Forced : No

Text #60
ID : 62
Format : UTF-8
Codec ID : S_TEXT/UTF8
Codec ID/Info : UTF-8 Plain Text
Duration : 57 min 8 s
Bit rate : 42 b/s
Frame rate : 0.121 FPS
Count of elements : 414
Stream size : 18.0 KiB (0%)
Language : Romanian
Default : No
Forced : No

Text #61
ID : 63
Format : UTF-8
Codec ID : S_TEXT/UTF8
Codec ID/Info : UTF-8 Plain Text
Duration : 59 min 9 s
Bit rate : 62 b/s
Frame rate : 0.165 FPS
Count of elements : 585
Stream size : 27.2 KiB (0%)
Language : Russian
Default : No
Forced : No

Text #62
ID : 64
Format : UTF-8
Codec ID : S_TEXT/UTF8
Codec ID/Info : UTF-8 Plain Text
Duration : 59 min 9 s
Bit rate : 37 b/s
Frame rate : 0.144 FPS
Count of elements : 510
Stream size : 16.4 KiB (0%)
Language : Swedish
Default : No
Forced : No

Text #63
ID : 65
Format : UTF-8
Codec ID : S_TEXT/UTF8
Codec ID/Info : UTF-8 Plain Text
Duration : 57 min 8 s
Bit rate : 47 b/s
Frame rate : 0.121 FPS
Count of elements : 415
Stream size : 19.9 KiB (0%)
Language : Swedish
Default : No
Forced : No

Text #64
ID : 66
Format : UTF-8
Codec ID : S_TEXT/UTF8
Codec ID/Info : UTF-8 Plain Text
Duration : 59 min 9 s
Bit rate : 101 b/s
Frame rate : 0.169 FPS
Count of elements : 601
Stream size : 44.1 KiB (0%)
Language : Thai
Default : No
Forced : No

Text #65
ID : 67
Format : UTF-8
Codec ID : S_TEXT/UTF8
Codec ID/Info : UTF-8 Plain Text
Duration : 57 min 8 s
Bit rate : 45 b/s
Frame rate : 0.122 FPS
Count of elements : 418
Stream size : 18.9 KiB (0%)
Language : Turkish
Default : No
Forced : No

Text #66
ID : 68
Format : UTF-8
Codec ID : S_TEXT/UTF8
Codec ID/Info : UTF-8 Plain Text
Duration : 59 min 9 s
Bit rate : 42 b/s
Frame rate : 0.146 FPS
Count of elements : 517
Stream size : 18.2 KiB (0%)
Language : Turkish
Default : No
Forced : No

Text #67
ID : 69
Format : UTF-8
Codec ID : S_TEXT/UTF8
Codec ID/Info : UTF-8 Plain Text
Duration : 57 min 6 s
Bit rate : 68 b/s
Frame rate : 0.118 FPS
Count of elements : 404
Stream size : 28.6 KiB (0%)
Language : Ukrainian
Default : No
Forced : No

Text #68
ID : 70
Format : UTF-8
Codec ID : S_TEXT/UTF8
Codec ID/Info : UTF-8 Plain Text
Duration : 59 min 8 s
Bit rate : 62 b/s
Frame rate : 0.160 FPS
Count of elements : 567
Stream size : 27.3 KiB (0%)
Language : Ukrainian
Default : No
Forced : No

Text #69
ID : 71
Format : UTF-8
Codec ID : S_TEXT/UTF8
Codec ID/Info : UTF-8 Plain Text
Duration : 57 min 10 s
Bit rate : 65 b/s
Frame rate : 0.131 FPS
Count of elements : 448
Stream size : 27.5 KiB (0%)
Language : Vietnamese
Default : No
Forced : No

Text #70
ID : 72
Format : UTF-8
Codec ID : S_TEXT/UTF8
Codec ID/Info : UTF-8 Plain Text
Duration : 59 min 9 s
Bit rate : 55 b/s
Frame rate : 0.152 FPS
Count of elements : 538
Stream size : 24.1 KiB (0%)
Language : Vietnamese
Default : No
Forced : No

Menu
00:57:41.000 : en:End Credits


点击图片可查看大图

软字幕无法在截图上展现,HDR版本/杜比视界版本截图会出现颜色异常,请使用支持的设备播放!



1 个附件 售价 大小 下载 时间

1080p.NF.WEB-DL.DDP.5.1.Atmos.H.264-BlackTV[1LOU.ME].torrent 0 金币 39.07K 238 次 18天前

#1楼
发帖时间:2024-05-27 09:13:42   |   回复数:0
游客组