BILL36
隐世仙人♂

[2011] [台湾] [其它] [WEB-1080P] 爱玩客[第21-22集][国语配音/中文字幕].iWalker.S01.2011.1080p.Hami.WEB-DL.H264.AAC-LelveTV 4.94

-->

完整标题:爱玩客[第21-22集][国语配音/中文字幕].iWalker.S01.2011.1080p.Hami.WEB-DL.H264.AAC-LelveTV 4.94GB



◎标  题 爱玩客
◎译  名 iWalker
◎片  名 愛玩客
◎年  代 2011
◎产  地 中国台湾
◎类  别 纪录片
◎语  言 汉语普通话
◎IMDb链接 https://www.imdb.com/title//
◎豆瓣评分 8.8/10 (253人评价)
◎豆瓣链接 https://movie.douban.com/subject/26326457/
◎演  员 郑坚克 James
      夏于乔 Kimi Hsia
      小钟 Jason Chung
      蔡灿得 Vega Tsai
      宥胜 Chris Wang
      吴宜媚 Mary
      蛤小百合
      吴婕安
      黄沐妍 Vicky
      任祐成 Teddy Jen
      林莎 Lisa

◎简  介
    《爱玩客》是三立电视台的一款推荐美食和旅游胜地的节目。由詹姆士等人联合主持。节目风格大胆风趣富有活力,旨在向全球华人推荐世界各地的美食美景。其前身是《美食大三通》。

部分资源为软字幕,移动端推荐播放器:MxPlayer,nPlayer,infuse ,其他播放器请自行尝试。

部分资源为软字幕,电脑端推荐播放器:PotPlayer,完美解码,KMPLAYER,其他播放器请自行尝试。

下载端推荐纯BT下载软件:qBittorrent,Bitcomet,uTorrent ,其他下载软件请自行尝试。不支持吸血迅雷。

##### MediaInfo ######
General
Unique ID : 7443014854535889133845035641616737927 (0x59978F6F8B847EC419E813F50B02687)
Complete name : iWalker.S01E21.2011.1080p.Hami.WEB-DL.H264.AAC-LelveTV.mkv
Duration : 44 min 42 s
Overall bit rate : 7 960 kb/s

Video
ID : 1
Format : AVC
Format/Info : Advanced Video Codec
Format profile : High@L4
Format settings : CABAC / 3 Ref Frames
Format settings, CABAC : Yes
Format settings, Reference frames : 3 frames
Format settings, GOP : M=1, N=30
Codec ID : V_MPEG4/ISO/AVC
Duration : 44 min 42 s
Bit rate : 7 872 kb/s
Width : 1 920 pixels
Height : 1 080 pixels
Display aspect ratio : 16:9
Frame rate mode : Constant
Frame rate : 29.970 (30000/1001) FPS
Color space : YUV
Chroma subsampling : 4:2:0
Bit depth : 8 bits
Scan type : Progressive
Bits/(Pixel*Frame) : 0.127
Stream size : 2.45 GiB (98%)
Writing library : x264 core 157 r2935 545de2f
Encoding settings : cabac=1 / ref=3 / deblock=1:0:0 / analyse=0x3:0x113 / me=hex / subme=7 / psy=1 / psy_rd=1.00:0.00 / mixed_ref=1 / me_range=16 / chroma_me=1 / trellis=1 / 8x8dct=1 / cqm=0 / deadzone=21,11 / fast_pskip=1 / chroma_qp_offset=-2 / threads=34 / lookahead_threads=5 / sliced_threads=0 / nr=0 / decimate=1 / interlaced=0 / bluray_compat=0 / constrained_intra=0 / bframes=0 / weightp=2 / keyint=30 / keyint_min=16 / scenecut=0 / intra_refresh=0 / rc_lookahead=30 / rc=abr / mbtree=1 / bitrate=7872 / ratetol=1.0 / qcomp=0.60 / qpmin=0 / qpmax=69 / qpstep=4 / vbv_maxrate=8000 / vbv_bufsize=7872 / nal_hrd=none / filler=0 / ip_ratio=1.40 / aq=1:1.00
Default : Yes
Forced : No

Audio
ID : 2
Format : AAC LC
Format/Info : Advanced Audio Codec Low Complexity
Codec ID : A_AAC-2
Duration : 44 min 42 s
Bit rate : 129 kb/s
Channel(s) : 2 channels
Channel layout : L R
Sampling rate : 48.0 kHz
Frame rate : 46.875 FPS (1024 SPF)
Compression mode : Lossy
Stream size : 41.1 MiB (2%)
Default : Yes
Forced : No


点击图片可查看大图

软字幕无法在截图上展现,HDR版本/杜比视界版本截图会出现颜色异常,请使用支持的设备播放!



1 个附件 售价 大小 下载 时间

iWalker.S01.2011.1080p.Hami.WEB-DL.H264.AAC-LelveTV[1LOU.ME].torrent 0 金币 14.93K 133 次 18天前

#1楼
发帖时间:2024-05-27 09:13:57   |   回复数:0
游客组