BILL36
隐世仙人♂

[2019] [大陆] [喜剧] [WEB-4K] 出线了,初恋[全30集][国语配音/中文字幕].The.Emergence.of.First.Love.S01.2019.2160p.WEB-DL.H265.A

-->

完整标题:出线了,初恋[全30集][国语配音/中文字幕].The.Emergence.of.First.Love.S01.2019.2160p.WEB-DL.H265.AAC-ZeroTV 155.66GB



◎标  题 出线了,初恋
◎译  名 十里绿茵一厘黑白
◎年  代 2019
◎产  地 中国大陆
◎类  别 喜剧
◎语  言 汉语普通话
◎IMDb链接 https://www.imdb.com/title//
◎豆瓣链接 https://movie.douban.com/subject/30245193/
◎演  员 陈子由 Ziyou Chen
      郑合惠子 Hehuizi Zheng
      杨业明 Leo
      李九霖 Jiulin Li
      荣梓希 Zixi Rong
      白凡 Fan Bai
      傅天骄 Tianjiao Fu
      颜敬杰 Jingjie Yan
      霍星宇 Xingyu Huo
      孙嘉璐 Jialu Sun
      陈奕恩 Chen Yien
      赵哲晨 Zhechen Zhao
      张恪维 Kewei Zhang
      郑希 Xi Zheng

◎简  介
    该剧讲述了二次元漫画少女华西兮(郑合惠子 饰)在寻找创作题材时,与因伤错过梦想的霍子昂(陈子由 饰)意外相识,两人从最初相见时的相互嫌弃,到一同在追梦过程中擦出初恋火花。同时,华西兮还作为护草小使者,在帮助霍子昂与好兄弟孙修杰(杨业明 饰)逐渐解除过往误会的过程中,陷入纠结三角恋,最终三人都在爱情与友情的终极难题中做出自己的选择,并收获最好的爱情和梦想人生。

部分资源为软字幕,移动端推荐播放器:MxPlayer,nPlayer,infuse ,其他播放器请自行尝试。

部分资源为软字幕,电脑端推荐播放器:PotPlayer,完美解码,KMPLAYER,其他播放器请自行尝试。

下载端推荐纯BT下载软件:qBittorrent,Bitcomet,uTorrent ,其他下载软件请自行尝试。不支持吸血迅雷。

##### MediaInfo ######
General
Complete name : The.Emergence.of.First.Love.S01E01.2019.2160p.WEB-DL.H265.AAC-ZeroTV.mp4
Duration : 42 min 10 s
Overall bit rate mode : Variable
Overall bit rate : 16.3 Mb/s

Video
ID : 1
Format : HEVC
Format/Info : High Efficiency Video Coding
Format profile : Main@L5@High
Codec ID : hev1
Codec ID/Info : High Efficiency Video Coding
Duration : 42 min 10 s
Bit rate : 16.1 Mb/s
Width : 3 840 pixels
Height : 2 160 pixels
Display aspect ratio : 16:9
Frame rate mode : Constant
Frame rate : 25.000 FPS
Color space : YUV
Chroma subsampling : 4:2:0
Bit depth : 8 bits
Bits/(Pixel*Frame) : 0.078
Stream size : 4.73 GiB (99%)
Writing library : 2.3.58544.674002
Color range : Limited
Color primaries : BT.709
Transfer characteristics : BT.709
Matrix coefficients : BT.709
Codec configuration box : hvcC

Audio
ID : 2
Format : AAC LC
Format/Info : Advanced Audio Codec Low Complexity
Codec ID : mp4a-40-2
Duration : 42 min 10 s
Bit rate mode : Variable
Bit rate : 192 kb/s
Channel(s) : 2 channels
Channel layout : L R
Sampling rate : 48.0 kHz
Frame rate : 46.875 FPS (1024 SPF)
Compression mode : Lossy
Stream size : 57.1 MiB (1%)
Default : Yes
Alternate group : 1


点击图片可查看大图

软字幕无法在截图上展现,HDR版本/杜比视界版本截图会出现颜色异常,请使用支持的设备播放!



1 个附件 售价 大小 下载 时间

The.Emergence.of.First.Love.S01.2019.2160p.WEB-DL.H265.AAC-ZeroTV[1LOU.ME].torrent 0 金币 394.64K 175 次 18天前

#1楼
发帖时间:2024-05-27 09:14:26   |   回复数:0
游客组