BILL36
隐世仙人♂

[2024] [大陆] [其它] [WEB-4K] 下饭江湖 第三季[第03集][国语配音/中文字幕].The.Soul.of.A.Meal.S03.2024.2160p.WEB-DL.H265.AAC-Lelv

-->

完整标题:下饭江湖 第三季[第03集][国语配音/中文字幕].The.Soul.of.A.Meal.S03.2024.2160p.WEB-DL.H265.AAC-LelveTV 1.94GB



◎标  题 下饭江湖 第三季
◎年  代 2024
◎产  地 中国大陆
◎类  别 纪录片
◎语  言 汉语普通话
◎IMDb链接 https://www.imdb.com/title//
◎豆瓣链接 https://movie.douban.com/subject/36406313/

◎简  介
    美食江湖,那些人、那些店绝非昙花一现,身处美食江湖中的江湖人,他们有所为,有所不为;他们也许在市井之中,也许在高楼之上;他们有故事、有态度、有手艺,我们在内心怀着勇气踏进江湖去寻找他们。我们将要寻找的江湖人,可能深藏于荒僻郊野处挖掘的饭馆中,亦或者是在跟着老饕去吃大隐隐于市的小馆子中,他们无论多么惊心动魄的身世故事、店小二的个性,在食物上,是不动声色的简单,是瞬间将平淡无奇的“美食”变得有了灵魂。

部分资源为软字幕,移动端推荐播放器:MxPlayer,nPlayer,infuse ,其他播放器请自行尝试。

部分资源为软字幕,电脑端推荐播放器:PotPlayer,完美解码,KMPLAYER,其他播放器请自行尝试。

下载端推荐纯BT下载软件:qBittorrent,Bitcomet,uTorrent ,其他下载软件请自行尝试。不支持吸血迅雷。

##### MediaInfo ######
General
Unique ID : 226230178862895413220162433057320831779 (0xAA3258FAFA3ED78051915274DA738B23)
Complete name : The.Soul.of.A.Meal.S03E03.2024.2160p.WEB-DL.H265.AAC-LelveTV.mkv
Duration : 51 min 20 s
Overall bit rate : 5 412 kb/s

Video
ID : 1
Format : HEVC
Format/Info : High Efficiency Video Coding
Format profile : Main@L5@Main
Codec ID : V_MPEGH/ISO/HEVC
Duration : 51 min 20 s
Bit rate : 5 220 kb/s
Width : 3 840 pixels
Height : 2 160 pixels
Display aspect ratio : 16:9
Frame rate mode : Constant
Frame rate : 25.000 FPS
Color space : YUV
Chroma subsampling : 4:2:0
Bit depth : 8 bits
Bits/(Pixel*Frame) : 0.025
Stream size : 1.87 GiB (96%)
Language : Chinese
Default : Yes
Forced : No

Audio
ID : 2
Format : AAC LC
Format/Info : Advanced Audio Codec Low Complexity
Codec ID : A_AAC-2
Duration : 51 min 20 s
Bit rate : 192 kb/s
Channel(s) : 2 channels
Channel layout : L R
Sampling rate : 44.1 kHz
Frame rate : 43.066 FPS (1024 SPF)
Compression mode : Lossy
Stream size : 69.7 MiB (4%)
Default : No
Forced : No


点击图片可查看大图

软字幕无法在截图上展现,HDR版本/杜比视界版本截图会出现颜色异常,请使用支持的设备播放!



1 个附件 售价 大小 下载 时间

The.Soul.of.A.Meal.S03.2024.2160p.WEB-DL.H265.AAC-LelveTV[1LOU.ME].torrent 0 金币 7.36K 224 次 18天前

#1楼
发帖时间:2024-05-27 09:14:55   |   回复数:0
游客组