BILL36
隐世仙人♂

[2022] [大陆] [真人秀] [WEB-1080P] 你好,星期六[第20240511,20240518期][国语配音/中文字幕].H!6.2024.1080p.WEB-DL.H264.MPEG-ColorWEB

-->

完整标题:你好,星期六[第20240511,20240518期][国语配音/中文字幕].H!6.2024.1080p.WEB-DL.H264.MPEG-ColorWEB 8.65GB



◎标  题 你好,星期六
◎译  名 你好星期六 / H!6
◎年  代 2022
◎产  地 中国大陆
◎类  别 真人秀
◎语  言 汉语普通话
◎IMDb链接 https://www.imdb.com/title//
◎豆瓣评分 5.5/10 (12133人评价)
◎豆瓣链接 https://movie.douban.com/subject/35698677/
◎演  员 何炅 Jiong He
      檀健次 Jianci Tan
      李雪琴 Xueqin Li
      秦霄贤 Xiaoxian Qin
      王鹤棣 Dylan Wang
      黄明昊 Justin
      蔡文静 Wenjing Cai
      赵小棠 Xiaotang Zhao
      冯禧
      秦岚 Lan Qin
      谭松韵 Songyun Tan
      贾静雯 Alyssa Chia

◎简  介
    节目重点围绕艺人艺能的全面深度挖掘、流光溢彩的精品表演秀的创意呈现、最具热点的社会性话题输出等方面进行设计。何炅、冯禧担任主持人,檀健次、李雪琴、秦霄贤、王鹤棣、蔡文静、赵小棠、黄明昊等担任阶段性常驻嘉宾,每期会邀请几位飞行嘉宾参与录制,包括明星和各行各业的代表以及不同领域的艺术团体。节目内容由访谈、互动、秀等环节构成,全面展现嘉宾的专业素养,重新定义了以艺服人、以能动人的综艺准入门槛。

部分资源为软字幕,移动端推荐播放器:MxPlayer,nPlayer,infuse ,其他播放器请自行尝试。

部分资源为软字幕,电脑端推荐播放器:PotPlayer,完美解码,KMPLAYER,其他播放器请自行尝试。

下载端推荐纯BT下载软件:qBittorrent,Bitcomet,uTorrent ,其他下载软件请自行尝试。不支持吸血迅雷。

##### MediaInfo ######
General
Complete name : 你好,星期六.H!6.20240511.1080p.WEB-DL.H264.MPEG-ColorWEB.mp4
Duration : 1 h 26 min
Overall bit rate mode : Constant
Overall bit rate : 7 200 kb/s

Video
ID : 1
Format : AVC
Format/Info : Advanced Video Codec
Format profile : High@L4
Format settings : CABAC / 1 Ref Frames
Format settings, CABAC : Yes
Format settings, Reference frames : 1 frame
Format settings, GOP : M=1, N=25
Codec ID : avc1
Codec ID/Info : Advanced Video Coding
Duration : 1 h 26 min
Bit rate mode : Constant
Bit rate : 7 002 kb/s
Width : 1 920 pixels
Height : 1 080 pixels
Display aspect ratio : 16:9
Frame rate mode : Constant
Frame rate : 25.000 FPS
Standard : Component
Color space : YUV
Chroma subsampling : 4:2:0
Bit depth : 8 bits
Scan type : Progressive
Bits/(Pixel*Frame) : 0.135
Stream size : 4.22 GiB (97%)
Writing library : 2.3.58544.674002
Color range : Limited
Codec configuration box : avcC

Audio
ID : 2
Format : MPEG Audio
Format version : Version 1
Format profile : Layer 2
Codec ID : mp4a-6B
Duration : 1 h 26 min
Bit rate mode : Constant
Bit rate : 192 kb/s
Channel(s) : 2 channels
Sampling rate : 48.0 kHz
Compression mode : Lossy
Stream size : 118 MiB (3%)
Language : Chinese
Default : Yes
Alternate group : 1


点击图片可查看大图

软字幕无法在截图上展现,HDR版本/杜比视界版本截图会出现颜色异常,请使用支持的设备播放!



1 个附件 售价 大小 下载 时间

H!6.2024.1080p.WEB-DL.H264.MPEG-ColorWEB[1LOU.ME].torrent 0 金币 24.23K 154 次 18天前

#1楼
发帖时间:2024-05-27 09:16:35   |   回复数:0
游客组