BILL36
隐世仙人♂

[2024] [大陆] [剧情] [WEB-4K] 微暗之火[60帧率版本][高码版][全28集][国语配音/中文字幕].2024.2160p.HQ.WEB-DL.H265.60fps.DTS5.1-BlackT

-->

完整标题:微暗之火[60帧率版本][高码版][全28集][国语配音/中文字幕].2024.2160p.HQ.WEB-DL.H265.60fps.DTS5.1-BlackTV 224.81GB



◎标  题 微暗之火
◎译  名 小南风
◎年  代 2024
◎产  地 中国大陆
◎类  别 剧情
◎语  言 汉语普通话
◎IMDb链接 https://www.imdb.com/title/tt28182708/
◎豆瓣链接 https://movie.douban.com/subject/35661631/
◎导  演 姚晓峰 Xiaofeng Yao
◎编  剧 毛云飞 Yunfei Mao
      玖月晞 Yuan Zhou
◎演  员 童瑶 Yao Tong
      张新成 Steven Zhang
      叶祖新 Zuxin Ye
      王子璇 Zixuan Wang
      赵浩闳 Haohong Zhao
      屠芷莹 Zhiying Tu
      田小洁 Xiaojie Tian
      黄璐 Lu Huang
      刘俊孝 Dean Liu
      王晴 Qing Wang
      赵寰宇 Huanyu Zhao
      刘恒甫 Hengfu Liu
      宋帅 Song Shuai
      冯倩瑶 Feng Qianyao
      孙大川 Dachuan Sun
      王沛禄 Peilu Wang
      刘妍 Yan Liu
      陈禹同 YuTong Chen

◎简  介
    周洛(张新成 饰)是清水镇第一个考上名牌大学的学霸,可他大学还没毕业就退学回来,并去了补习学校复读,在小镇上掀起一阵风暴。如果不是自己被人非议,周洛恐怕永远也不会注意到镇上的另一个话题人物,南雅。南雅(童瑶 饰)是一个美貌过人的服装店主,关于她的风言风语始终不绝于耳。她每天往返于服装店和家之间,带着生病的女儿宛湾。随着周洛与南雅日益熟络,周洛发现南雅的婚姻生活并不美满,她的商人丈夫徐毅回到家后有着残暴的一面,周洛曾亲眼目睹他家暴南雅。而“大桥案”的发生,更牵扯出了徐毅在公司经营中的诸多问题。这一切,让南雅的婚姻岌岌可危。为了保护女儿宛湾,南雅想要离婚。善良的少年周洛不忍看到南雅在婚姻中一而再受创,主动伸出援手,为南雅提供帮助。最终,在周洛和小镇善良的人们以及警察的帮助下,案件各方都收获了公平公正的对待。

部分资源为软字幕,移动端推荐播放器:MxPlayer,nPlayer,infuse ,其他播放器请自行尝试。

部分资源为软字幕,电脑端推荐播放器:PotPlayer,完美解码,KMPLAYER,其他播放器请自行尝试。

下载端推荐纯BT下载软件:qBittorrent,Bitcomet,uTorrent ,其他下载软件请自行尝试。不支持吸血迅雷。

##### MediaInfo ######
General
Unique ID : 113656679952147837715161690747264629552 (0x55817AF6E749118D5C5BF7881A98FB30)
Complete name : Gone.With.The.Wind.S01E01.2024.2160p.HQ.WEB-DL.H265.60fps.DTS5.1-BlackTV.mkv
Duration : 51 min 38 s
Overall bit rate : 26.3 Mb/s

Video
ID : 1
Format : HEVC
Format/Info : High Efficiency Video Coding
Format profile : Main [email protected]@Main
Codec ID : V_MPEGH/ISO/HEVC
Duration : 51 min 38 s
Bit rate : 24.8 Mb/s
Width : 3 840 pixels
Height : 1 608 pixels
Display aspect ratio : 2.40:1
Original display aspect ratio : 2.40:1
Frame rate mode : Constant
Frame rate : 60.000 FPS
Color space : YUV
Chroma subsampling : 4:2:0
Bit depth : 10 bits
Bits/(Pixel*Frame) : 0.067
Stream size : 8.96 GiB (94%)
Language : Chinese
Default : Yes
Forced : No
Color range : Limited
Color primaries : BT.709
Transfer characteristics : BT.709
Matrix coefficients : BT.709
VENDOR_ID : [0][0][0][0]

Audio #1
ID : 2
Format : DTS
Format/Info : Digital Theater Systems
Codec ID : A_DTS
Duration : 51 min 38 s
Bit rate mode : Constant
Bit rate : 768 kb/s
Channel(s) : 6 channels
Channel layout : C L R Ls Rs LFE
Sampling rate : 48.0 kHz
Frame rate : 93.750 FPS (512 SPF)
Bit depth : 24 bits
Compression mode : Lossy
Stream size : 284 MiB (3%)
Title : Mandarin [DTS5.1]
Language : Chinese
Default : Yes
Forced : No

Audio #2
ID : 3
Format : E-AC-3
Format/Info : Enhanced AC-3
Commercial name : Dolby Digital Plus
Codec ID : A_EAC3
Duration : 51 min 38 s
Bit rate mode : Constant
Bit rate : 448 kb/s
Channel(s) : 6 channels
Channel layout : L R C LFE Ls Rs
Sampling rate : 48.0 kHz
Frame rate : 31.250 FPS (1536 SPF)
Compression mode : Lossy
Stream size : 165 MiB (2%)
Title : Mandarin [DDP5.1]
Language : Chinese
Service kind : Complete Main
Default : No
Forced : No

Audio #3
ID : 4
Format : AAC LC
Format/Info : Advanced Audio Codec Low Complexity
Codec ID : A_AAC-2
Duration : 51 min 38 s
Bit rate : 256 kb/s
Channel(s) : 2 channels
Channel layout : L R
Sampling rate : 44.1 kHz
Frame rate : 43.066 FPS (1024 SPF)
Compression mode : Lossy
Stream size : 94.6 MiB (1%)
Title : Mandarin [AAC2.0]
Language : Chinese
Default : No
Forced : No
VENDOR_ID : [0][0][0][0]

Menu
00:05:39.294 : zh:林方路清水镇赴任 千禧夜发生凶杀案
00:16:10.304 : zh:林方路勘察案发现场 与老陈意见相左
00:28:58.619 : zh:林方路送宛湾到周家 询问周洛当晚细节
00:43:38.294 : zh:老陈对南雅疲劳审讯 被林方路制止


点击图片可查看大图

软字幕无法在截图上展现,HDR版本/杜比视界版本截图会出现颜色异常,请使用支持的设备播放!



1 个附件 售价 大小 下载 时间

2024.2160p.HQ.WEB-DL.H265.60fps.DTS5.1-BlackTV[1LOU.ME].torrent 0 金币 567.44K 1260 次 18天前

#1楼
发帖时间:2024-05-27 09:17:06   |   回复数:0
游客组