BILL36
隐世仙人♂

[2024] [大陆] [真人秀] [WEB-1080P] 超级语文课 第三季[第01-12集][国语配音/中文字幕].Chao.Ji.Yu.Wen.Ke.S03.2024.1080p.WEB-DL.H264.AAC-L

-->

完整标题:超级语文课 第三季[第01-12集][国语配音/中文字幕].Chao.Ji.Yu.Wen.Ke.S03.2024.1080p.WEB-DL.H264.AAC-LelveTV 17.74GB



◎标  题 超级语文课 第三季
◎年  代 2024
◎产  地 中国大陆
◎类  别 真人秀
◎语  言 汉语普通话
◎IMDb链接 https://www.imdb.com/title//
◎豆瓣链接 https://movie.douban.com/subject/36652980/

◎简  介
    山东卫视全国首档大语文公开课《超级语文课》第三季官宣招募选手,如果你是与学生打成一片的师范新人,如果你有丰富深厚的文学素养和知识储备,如果你会创新教学方法和课堂趣味互动,这里就是展示你教学风采的讲台。

部分资源为软字幕,移动端推荐播放器:MxPlayer,nPlayer,infuse ,其他播放器请自行尝试。

部分资源为软字幕,电脑端推荐播放器:PotPlayer,完美解码,KMPLAYER,其他播放器请自行尝试。

下载端推荐纯BT下载软件:qBittorrent,Bitcomet,uTorrent ,其他下载软件请自行尝试。不支持吸血迅雷。

##### MediaInfo ######
General
Complete name : Chao.Ji.Yu.Wen.Ke.S03E01.2024.1080p.WEB-DL.H264.AAC-LelveTV.mp4
Duration : 1 h 29 min
Overall bit rate mode : Variable
Overall bit rate : 1 240 kb/s

Video
ID : 1
Format : AVC
Format/Info : Advanced Video Codec
Format profile : High@L4
Format settings : CABAC / 4 Ref Frames
Format settings, CABAC : Yes
Format settings, Reference frames : 4 frames
Codec ID : avc1
Codec ID/Info : Advanced Video Coding
Duration : 1 h 29 min
Source duration : 1 h 29 min
Bit rate : 1 140 kb/s
Width : 1 920 pixels
Height : 1 080 pixels
Display aspect ratio : 16:9
Frame rate mode : Variable
Frame rate : 25.000 FPS
Minimum frame rate : 24.993 FPS
Maximum frame rate : 25.007 FPS
Color space : YUV
Chroma subsampling : 4:2:0
Bit depth : 8 bits
Scan type : Progressive
Bits/(Pixel*Frame) : 0.022
Stream size : 730 MiB (92%)
Source stream size : 730 MiB (92%)
mdhd_Duration : 5372760
Codec configuration box : avcC

Audio
ID : 2
Format : AAC LC
Format/Info : Advanced Audio Codec Low Complexity
Codec ID : mp4a-40-2
Duration : 1 h 29 min
Bit rate mode : Variable
Bit rate : 93.4 kb/s
Maximum bit rate : 96.8 kb/s
Channel(s) : 2 channels
Channel layout : L R
Sampling rate : 48.0 kHz
Frame rate : 46.875 FPS (1024 SPF)
Compression mode : Lossy
Stream size : 59.8 MiB (8%)
Default : Yes
Alternate group : 1


点击图片可查看大图

软字幕无法在截图上展现,HDR版本/杜比视界版本截图会出现颜色异常,请使用支持的设备播放!



1 个附件 售价 大小 下载 时间

Chao.Ji.Yu.Wen.Ke.S03.2024.1080p.WEB-DL.H264.AAC-LelveTV[1LOU.ME].torrent 0 金币 47.89K 224 次 18天前

#1楼
发帖时间:2024-05-27 09:17:21   |   回复数:0
游客组