BILL36
隐世仙人♂

[2024] [日本] [动画] [WEB-1080P] 鬼灭之刃 柱训练篇[第03集][中文字幕].Demon.Slayer.Kimetsu.no.Yaiba.S05.2019.1080p.Hami.WEB-DL.H

-->

完整标题:鬼灭之刃 柱训练篇[第03集][中文字幕].Demon.Slayer.Kimetsu.no.Yaiba.S05.2019.1080p.Hami.WEB-DL.H264.AAC-LelveTV 1.29GB



◎标  题 鬼灭之刃 柱训练篇
◎译  名 鬼灭之刃 九柱集训篇 / 鬼灭之刃 第四季
◎片  名 鬼滅の刃 柱稽古編
◎年  代 2024
◎产  地 日本
◎类  别 动画
◎语  言 日语
◎IMDb链接 https://www.imdb.com/title//
◎豆瓣链接 https://movie.douban.com/subject/36449810/
◎导  演 外崎春雄 Sotozaki Haruo
◎编  剧 吾峠呼世晴 Koyoharu Gotouge
◎演  员 花江夏树 Natsuki Hanae
      鬼头明里 Akari Kitō
      下野纮 Hiro Shimono
      松冈祯丞 Yoshitsugu Matsuoka
      樱井孝宏 Takahiro Sakurai
      小西克幸 Katsuyuki Konishi
      河西健吾 Kengo Kawanishi
      早见沙织 Saori Hayami
      花泽香菜 Kana Hanazawa
      铃村健一 Kenichi Suzumura
      关智一 Tomokazu Seki
      杉田智和 Tomokazu Sugita

◎简  介
    《鬼灭之刃 柱训练篇》主要讲述的是九柱集训的故事,包括岩柱悲鸣屿行冥,炎柱炼狱杏寿郎,霞柱时透无一郎,音柱宇髄天元,恋柱甘露寺蜜璃,蛇柱伊黑小芭内,水柱富岗义勇,风柱不死川实弥,虫柱蝴蝶忍九人,这九个角色在原著漫画中也是人气非常高的角色,而下一篇章将会讲述这九人的故事。

部分资源为软字幕,移动端推荐播放器:MxPlayer,nPlayer,infuse ,其他播放器请自行尝试。

部分资源为软字幕,电脑端推荐播放器:PotPlayer,完美解码,KMPLAYER,其他播放器请自行尝试。

下载端推荐纯BT下载软件:qBittorrent,Bitcomet,uTorrent ,其他下载软件请自行尝试。不支持吸血迅雷。

##### MediaInfo ######
General
Unique ID : 184594118220353005483804527195326406747 (0x8ADF88B32A1D9B1DFF4F5DBAC55E605B)
Complete name : Demon.Slayer.Kimetsu.no.Yaiba.S05E03.2019.1080p.Hami.WEB-DL.H264.AAC-LelveTV.mkv
Duration : 23 min 45 s
Overall bit rate : 7 776 kb/s

Video
ID : 1
Format : AVC
Format/Info : Advanced Video Codec
Format profile : High@L4
Format settings : CABAC / 3 Ref Frames
Format settings, CABAC : Yes
Format settings, Reference frames : 3 frames
Format settings, GOP : M=1, N=30
Codec ID : V_MPEG4/ISO/AVC
Duration : 23 min 45 s
Bit rate : 7 872 kb/s
Width : 1 920 pixels
Height : 1 080 pixels
Display aspect ratio : 16:9
Frame rate mode : Constant
Frame rate : 29.970 (30000/1001) FPS
Color space : YUV
Chroma subsampling : 4:2:0
Bit depth : 8 bits
Scan type : Progressive
Bits/(Pixel*Frame) : 0.127
Stream size : 1.27 GiB (98%)
Writing library : x264 core 157 r2935 545de2f
Encoding settings : cabac=1 / ref=3 / deblock=1:0:0 / analyse=0x3:0x113 / me=hex / subme=7 / psy=1 / psy_rd=1.00:0.00 / mixed_ref=1 / me_range=16 / chroma_me=1 / trellis=1 / 8x8dct=1 / cqm=0 / deadzone=21,11 / fast_pskip=1 / chroma_qp_offset=-2 / threads=34 / lookahead_threads=5 / sliced_threads=0 / nr=0 / decimate=1 / interlaced=0 / bluray_compat=0 / constrained_intra=0 / bframes=0 / weightp=2 / keyint=30 / keyint_min=16 / scenecut=0 / intra_refresh=0 / rc_lookahead=30 / rc=abr / mbtree=1 / bitrate=7872 / ratetol=1.0 / qcomp=0.60 / qpmin=0 / qpmax=69 / qpstep=4 / vbv_maxrate=8000 / vbv_bufsize=7872 / nal_hrd=none / filler=0 / ip_ratio=1.40 / aq=1:1.00
Default : Yes
Forced : No

Audio
ID : 2
Format : AAC LC
Format/Info : Advanced Audio Codec Low Complexity
Codec ID : A_AAC-2
Duration : 23 min 45 s
Bit rate : 128 kb/s
Channel(s) : 2 channels
Channel layout : L R
Sampling rate : 48.0 kHz
Frame rate : 46.875 FPS (1024 SPF)
Compression mode : Lossy
Stream size : 21.8 MiB (2%)
Default : Yes
Forced : No


点击图片可查看大图

软字幕无法在截图上展现,HDR版本/杜比视界版本截图会出现颜色异常,请使用支持的设备播放!



1 个附件 售价 大小 下载 时间

Demon.Slayer.Kimetsu.no.Yaiba.S05.2019.1080p.Hami.WEB-DL.H264.AAC-LelveTV[1LOU.ME].torrent 0 金币 5.76K 2415 次 18天前

#1楼
发帖时间:2024-05-27 10:09:01   |   回复数:0
游客组