q3r3
武林盟主

[更 早] [日本] [剧情] [BD-1080P] 忍者 Shinobi.no.Mono.1962.1080p.BluRay.x264-BiPOLAR 11.06GB

-->

帖子完整标题:忍者 Shinobi.no.Mono.1962.1080p.BluRay.x264-BiPOLAR 11.06GB



◎译  名 忍者/The Ninja
◎片  名 忍びの者
◎年  代 1962
◎产  地 日本
◎类  别 剧情 / 动作
◎语  言 日语
◎上映日期 1962-12-01
◎豆瓣评分 6.6/10 from 75 users
◎豆瓣链接 https://movie.douban.com/subject/1307062/
◎片  长 104 分钟
◎导  演 山本萨夫 Satsuo Yamamoto
◎主  演 市川雷藏 Raiz? Ichikawa
      藤村志保 Shiho Fujimura
      伊藤雄之助 Y?nosuke It?
      伊达三郎 Saburo Date
      加藤嘉 Yoshi Kat?
      若山富三郎 Tomisaburo Wakayama
      岸田今日子 Ky?ko Kishida
      加藤武 Takeshi Kat?
      小林胜彦 Katsuhiko Kobayashi
      西村晃 K? Nishimura
      高见国一 Kuniichi Takami

◎标  签 日本 | 山本萨夫 | 忍者 | 日本电影 | 市川雷藏 | 山本薩夫 | 若山富三郎 | 電影院

◎简  介

  大泥棒として有名な石川五右衛門を、権力に反逆した下忍として描いた村山知義の同名小説の映画化。監督は社会派の巨匠?山本薩夫があたり、リアルで豪快なアクションと権力の道具として生きるしかない下忍の反逆の叫びを描き出し、時代劇映画に新たな地平を切り拓いた。戦国末期、全国制覇の野望に燃える織田信長は延暦寺、石山本願寺など宗門の掃討に取りかかる。伊賀の国、百地三太夫配下の下忍?石川五右衛門は抜群の技術を誇り、仲間から一目置かれる存在だ。天台、真言修験僧の流れを汲む忍者たちは信長暗殺の密命を受けるが、なぜか五右衛門だけは残されてしまう……。三太夫役の伊藤雄之助の迫力ある熱演が見もの。

Video
ID : 1
Format : AVC
Format/Info : Advanced Video Codec
Format profile : [email protected]
Format settings : CABAC / 5 Ref Frames
Format settings, CABAC : Yes
Format settings, Reference frames : 5 frames
Codec ID : V_MPEG4/ISO/AVC
Duration : 1 h 44 min
Bit rate : 14.4 Mb/s
Width : 1 918 pixels
Height : 794 pixels
Display aspect ratio : 2.40:1
Frame rate mode : Constant
Frame rate : 23.976 (24000/1001/189150) FPS
Color space : YUV
Chroma subsampling : 4:2:0
Bit depth : 8 bits
Scan type : Progressive
Bits/(Pixel*Frame) : 0.395
Stream size : 10.5 GiB (97%)
Writing library : x264 core 163 r3059 b684ebe
Encoding settings : cabac=1 / ref=5 / deblock=1:-3:-3 / analyse=0x3:0x133 / me=umh / subme=10 / psy=1 / psy_rd=1.00:0.15 / mixed_ref=1 / me_range=24 / chroma_me=1 / trellis=2 / 8x8dct=1 / cqm=0 / deadzone=21,11 / fast_pskip=1 / chroma_qp_offset=-3 / threads=18 / lookahead_threads=3 / sliced_threads=0 / nr=0 / decimate=1 / interlaced=0 / bluray_compat=0 / constrained_intra=0 / bframes=8 / b_pyramid=2 / b_adapt=2 / b_bias=0 / direct=3 / weightb=1 / open_gop=0 / weightp=2 / keyint=250 / keyint_min=23 / scenecut=40 / intra_refresh=0 / rc_lookahead=60 / rc=crf / mbtree=1 / crf=17.0 / qcomp=0.60 / qpmin=0 / qpmax=69 / qpstep=4 / ip_ratio=1.40 / aq=3:0.50
Language : English
Default : Yes
Forced : No
Color range : Limited
Matrix coefficients : BT.709

Audio
ID : 2
Format : FLAC
Format/Info : Free Lossless Audio Codec
Codec ID : A_FLAC
Duration : 1 h 44 min
Bit rate mode : Variable
Bit rate : 443 kb/s
Channel(s) : 2 channels
Channel layout : L R
Sampling rate : 48.0 kHz
Frame rate : 11.719 FPS (4096 SPF)
Bit depth : 24 bits
Compression mode : Lossless
Stream size : 331 MiB (3%)
Writing library : libFLAC 1.2.1 (UTC 2007-09-17)
Language : Japanese
Default : Yes
Forced : No

Text #1
ID : 3
Format : UTF-8
Codec ID : S_TEXT/UTF8
Codec ID/Info : UTF-8 Plain Text
Duration : 1 h 44 min
Bit rate : 41 b/s
Count of elements : 809
Stream size : 31.4 KiB (0%)
Title : English
Language : English
Default : Yes
Forced : Yes

Text #2
ID : 4
Format : PGS
Muxing mode : zlib
Codec ID : S_HDMV/PGS
Codec ID/Info : Picture based subtitle format used on BDs/HD-DVDs
Duration : 1 h 42 min
Bit rate : 62.6 kb/s
Count of elements : 5229
Stream size : 46.1 MiB (0%)
Title : Japanese SDH
Language : Japanese
Default : No
Forced : No

Menu
00:00:00.000 : en:00:00:00.000
00:02:42.788 : en:00:02:42.788
00:07:36.790 : en:00:07:36.790
00:11:02.745 : en:00:11:02.745
00:14:34.332 : en:00:14:34.332
00:20:04.328 : en:00:20:04.328
00:20:29.103 : en:00:20:29.103
00:23:05.801 : en:00:23:05.801
00:25:17.641 : en:00:25:17.641
00:28:12.232 : en:00:28:12.232
00:30:40.922 : en:00:30:40.922
00:31:57.499 : en:00:31:57.499
00:39:17.438 : en:00:39:17.438
00:42:12.113 : en:00:42:12.113
00:46:28.119 : en:00:46:28.119
00:54:43.280 : en:00:54:43.280
01:01:00.073 : en:01:01:00.073
01:03:31.016 : en:01:03:31.016
01:07:07.190 : en:01:07:07.190
01:09:41.135 : en:01:09:41.135
01:14:01.270 : en:01:14:01.270
01:16:28.250 : en:01:16:28.250
01:17:52.877 : en:01:17:52.877
01:21:18.373 : en:01:21:18.373
01:26:34.648 : en:01:26:34.648
01:35:22.300 : en:01:35:22.300
01:43:40.214 : en:01:43:40.214





1 个附件 售价 大小 下载 时间

Shinobi.no.Mono.1962.1080p.BluRay.x264-BiPOLAR.torrent 0 金币 56.29K 399 次 4天前

#1楼
发帖时间:2021-06-11 11:24:36   |   回复数:0
游客组