fg603603
一代宗师

[2008] [欧美] [剧情] [WEB-1080P] 绿光 Green.Flash.2008.1080p.AMZN.WEBRip.DD5.1.x264-CRUD 9.27GB

-->

帖子完整标题:绿光 Green.Flash.2008.1080p.AMZN.WEBRip.DD5.1.x264-CRUD 9.27GB



◎译  名 绿光
◎片  名 Green Flash
◎年  代 2008
◎产  地 美国
◎类  别 剧情 / 喜剧 / 运动
◎语  言 英语
◎上映日期 2008-02-01
◎豆瓣评分 4.7/10 from 69 users
◎豆瓣链接 https://movie.douban.com/subject/3600859/
◎导  演 Paul Nihipali Paul Nihipali
◎编  剧 Paul Nihipali Paul Nihipali
◎主  演 Sean Ridgway
      Kat Tuohy Kat Tuohy
      Court Young Court Young
      克里斯汀·德·卢卡 Kristen De Luca
       Phil Dalhausser
       Ritche Lago Bautista
       Shane Schoeppner
      埃里克·波德纳尔 Eric Podnar
       Bryce Hurless
      托里·德维托 Torrey DeVitto
      汤贾·雷切特 Tanja Reichert
      Paul Nihipali Paul Nihipali
      威尔逊·克鲁兹 Wilson Cruz
      克里斯汀·卡瓦拉瑞 Kristin Cavallari
      马特·普罗考普 Matt Prokop
      布丽·特纳 Bree Turner
      贾里尔·怀特 Jaleel White
      David Charvet David Charvet
      Marques Johnson Marques Johnson
      布洛迪·哈泽尔 Brody Hutzler
      Cedric Pendleton Cedric Pendleton
      Jason Olive Jason Olive
      理查德·雷西尔 Richard Riehle
      Misty May-Treanor Misty May-Treanor

◎简  介

  步入30岁的成熟年纪了,卡梅伦戴已经失去了多次入住职业篮球名人堂的机会并成为了一个生活漫无目的的人。自从遇到了一个漂亮女人之后,他就整天出现在了美国南加州职业沙滩排球的现场。似乎他是位有天赋的运动员,注定成为体育明星。可好事多磨,他成功的机会又再次受到威胁了。
  
  At the ripe old age of 30, Cameron Day has given up his chances at pro-basketball fame and settled into an aimless life. A chance encounter with a beautiful woman lands him smack in the middle of Southern California's pro beach volleyball scene. A naturally talented true athlete, he seems destined for sports stardom once again until his old demons start creeping in, threatening his chances at success. Written by Casting
  
  "Green Flash" follows the triumphant rise and self-discovery of Cameron Day, a former college basketball star whose once uncanny ability to master the playing fields around him comes at one small price, his sanity. Cameron has never been able to balance his unique gift of greatness with the tormenting mental sacrifice it requires of him. When he's in "the zone" his world is perfect. It slows down for him and a light shines a path on success. But to get there brings out an anger and a fear that tears his outer world apart. Now, after a mysterious ten year disappearance from the athletic world he once dominated, we find Cameron Day desperate to give greatness another go around. He's determined to become an elite athlete once again, but this time Cameron sets his sites on ruling the pro beach volleyball circuit. From Manhattan, New York to Manhattan Beach, California, Cameron's journey is inspired by an artistic beach beauty named Mia, who - despite her unwillingness to date jock types - leads Cameron down a path of self awareness and enlightens him on the phenomenon of the Green Flash: a fleeting moment of brilliance in nature. On the tour, Cameron makes new friends, Kenny, and new enemies, Madden, but a cut throat world filled with clamoring to get ahead leaves everybody questioning, who is who and which is which? In his maddening pursuit of victory at the grand daddy of all tournaments, The Manhattan Beach Open, Cameron is forced to determine who he can trust by his tormented side as he sets out to not only win, but to face his demons in his own quest for a fleeting moment of brilliance. Written by Green Flash

Video
ID : 1
Format : AVC
Format/Info : Advanced Video Codec
Format profile : [email protected]
Format settings : CABAC / 4 Ref Frames
Format settings, CABAC : Yes
Format settings, Reference frames : 4 frames
Codec ID : V_MPEG4/ISO/AVC
Duration : 1 h 37 min
Bit rate mode : Variable
Bit rate : 13.2 Mb/s
Maximum bit rate : 15.0 Mb/s
Width : 1 920 pixels
Height : 1 080 pixels
Display aspect ratio : 16:9
Frame rate mode : Constant
Frame rate : 23.976 (24000/1001/189150) FPS
Color space : YUV
Chroma subsampling : 4:2:0
Bit depth : 8 bits
Scan type : Progressive
Bits/(Pixel*Frame) : 0.266
Stream size : 8.96 GiB (97%)
Writing library : x264 core 148 r2623 d5b2374
Encoding settings : cabac=1 / ref=4 / deblock=1:-1:-1 / analyse=0x3:0x133 / me=umh / subme=9 / psy=1 / psy_rd=1.00:0.15 / mixed_ref=1 / me_range=24 / chroma_me=1 / trellis=2 / 8x8dct=1 / cqm=0 / deadzone=21,11 / fast_pskip=1 / chroma_qp_offset=-3 / threads=34 / lookahead_threads=5 / sliced_threads=0 / nr=150 / decimate=1 / interlaced=0 / bluray_compat=0 / constrained_intra=0 / bframes=8 / b_pyramid=2 / b_adapt=2 / b_bias=0 / direct=3 / weightb=1 / open_gop=0 / weightp=2 / keyint=120 / keyint_min=61 / scenecut=0 / intra_refresh=0 / rc_lookahead=120 / rc=crf / mbtree=1 / crf=18.0 / qcomp=0.60 / qpmin=0 / qpmax=69 / qpstep=4 / vbv_maxrate=15000 / vbv_bufsize=31250 / crf_max=0.0 / nal_hrd=vbr / filler=0 / ip_ratio=1.40 / aq=3:1.00
Default : Yes
Forced : No
Color range : Limited
Color primaries : BT.709
Transfer characteristics : BT.709
Matrix coefficients : BT.709

Audio
ID : 2
Format : AC-3
Format/Info : Audio Coding 3
Commercial name : Dolby Digital
Codec ID : A_AC3
Duration : 1 h 37 min
Bit rate mode : Constant
Bit rate : 448 kb/s
Channel(s) : 6 channels
Channel layout : L R C LFE Ls Rs
Sampling rate : 48.0 kHz
Frame rate : 31.250 FPS (1536 SPF)
Compression mode : Lossy
Stream size : 312 MiB (3%)
Language : English
Service kind : Complete Main
Default : Yes
Forced : No

Text #1
ID : 3
Format : UTF-8
Codec ID : S_TEXT/UTF8
Codec ID/Info : UTF-8 Plain Text
Duration : 1 h 35 min
Bit rate : 74 b/s
Count of elements : 1282
Stream size : 52.1 KiB (0%)
Language : English
Default : No
Forced : No

Text #2
ID : 4
Format : UTF-8
Codec ID : S_TEXT/UTF8
Codec ID/Info : UTF-8 Plain Text
Duration : 1 h 36 min
Bit rate : 77 b/s
Count of elements : 1379
Stream size : 54.7 KiB (0%)
Title : SDH
Language : English
Default : No
Forced : No

Menu
00:00:00.000 : en:Day\'s Second Chance (Main Title)
00:05:12.479 : en:Landing a Job
00:07:26.613 : en:Game of Ace
00:12:10.313 : en:Ms. Mysterious Jogger
00:15:20.620 : en:Kenny\'s Insight
00:21:23.240 : en:The Qualifiers
00:26:29.621 : en:Hermosa Open
00:29:55.627 : en:Time Spent with Mia
00:34:34.447 : en:The Offer
00:39:46.801 : en:Sports and Art
00:43:54.048 : en:Chicago Open and Las Vegas Invitational
00:50:38.536 : en:Versus Lacroix and Pompena
00:56:16.206 : en:Jealousy and Truths
01:00:13.401 : en:Fort Lauderdale Open
01:04:20.939 : en:Losing It
01:10:57.620 : en:Surprises
01:13:31.908 : en:New Focus, Old Partner
01:19:53.998 : en:Manhattan Main Event
01:24:12.581 : en:A Dream Realized
01:34:09.561 : en:End Titles





1 个附件 售价 大小 下载 时间

Green.Flash.2008.1080p.AMZN.WEBRip.DD5.1.x264-CRUD.torrent 0 金币 23.80K 406 次 10天前

#1楼
发帖时间:2022-01-14 20:50:14   |   回复数:0
游客组