fg603603
一代宗师

[2014] [其它] [剧情] [BD-720P] 后会无期 The.Continent.2014.720p.BluRay.x264-YAMG 2.51GB

-->

帖子完整标题:后会无期 The.Continent.2014.720p.BluRay.x264-YAMG 2.51GB



◎译  名 The Continent
◎片  名 后会无期
◎年  代 2014
◎产  地 中国大陆
◎类  别 剧情
◎语  言 汉语普通话,手语,粤语
◎上映日期 2014-07-24(中国大陆)
◎豆瓣评分 7.2/10 from 570795 users
◎豆瓣链接 https://movie.douban.com/subject/25805741/
◎片  长 104分钟
◎导  演 韩寒 Han Han
◎编  剧 韩寒 Han Han
◎主  演 冯绍峰 Shaofeng Feng
      陈柏霖 Bo-lin Chen
      钟汉良 Wallace Chung
      王珞丹 Luodan Wang
      袁泉 Quan Yuan
      陈乔恩 Joe Chen
      贾樟柯 Zhangke Jia
      白客 White. K
      孔连顺 Lianshun Kong
      高华阳 Zack Gao
      韩寒 Han Han
      张杰 Jie Zhang
      左镜伯 Jingbo Zuo
      韩寒爷爷
      小马达 Madagascar

◎简  介

  故事开始于虚构的中国最东边的小岛“东极岛”,智力低下的青年胡生(高华阳 饰)讲述了关于他的两个哥们儿——马浩汉(冯绍峰 饰)和江河(陈柏霖 饰)的故事。浩汉在外闯荡多年后回到故乡,却发现全岛面临着拆迁问题,而他最好的朋友,岛上唯一的老师江河也将被调到更为偏远的地区。于是 浩汉做出了一个决定,那就是开车送江河去三千多公里外的学校报到。兄弟三人踏上了前所未有的旅程,途中他们见了当临时演员的童年玩伴周沫(陈乔恩 饰),误入歧途的苏米(王珞丹 饰),还有浩汉心仪多年从未见面的笔友刘莺莺(袁泉 饰),以及不羁的摩托车手阿吕(钟汉良 饰)。看似平常的旅程却暗藏伏笔,浩汉和江河最终走到了终点,开始了截然不同的人生轨迹。
  
  本片是著名作家兼赛车手韩寒的电影导演处女作。

◎获奖情况

  第51届台北金马影展 ?(2014)
  金马奖最佳原创歌曲
  
  第15届华语电影传媒大奖 ?(2015)
  观众票选最受瞩目电影(提名)
  观众票选最受瞩目男演员(提名) 陈柏霖
  观众票选最受瞩目女演员(提名) 王珞丹
  
  第22届北京大学生电影节 ?(2015)
  最佳处女作奖(提名) 韩寒
  
  第1届豆瓣电影年度榜单 ?(2014)
  评分最高的华语电影(提名)
  最受关注的院线电影
  年度电影原声
  7月最受关注电影(提名)
  
  第5届豆瓣电影鑫像奖 ?(2015)
  鑫豆单元最佳影片(华语)(提名)
  鑫豆单元最佳歌曲

Video
ID : 1
Format : AVC
Format/Info : Advanced Video Codec
Format profile : [email protected]
Format settings : CABAC / 12 Ref Frames
Format settings, CABAC : Yes
Format settings, Reference frames : 12 frames
Codec ID : V_MPEG4/ISO/AVC
Duration : 1 h 44 min
Bit rate : 2 772 kb/s
Width : 1 280 pixels
Height : 504 pixels
Display aspect ratio : 2.540
Frame rate mode : Constant
Frame rate : 23.976 (24000/1001/189150) FPS
Color space : YUV
Chroma subsampling : 4:2:0
Bit depth : 8 bits
Scan type : Progressive
Bits/(Pixel*Frame) : 0.179
Stream size : 2.02 GiB (80%)
Writing library : x264 core 164 r3075 66a5bc1
Encoding settings : cabac=1 / ref=12 / deblock=1:-3:-3 / analyse=0x3:0x133 / me=umh / subme=10 / psy=1 / psy_rd=1.00:0.00 / mixed_ref=1 / me_range=32 / chroma_me=1 / trellis=2 / 8x8dct=1 / cqm=0 / deadzone=21,11 / fast_pskip=0 / chroma_qp_offset=-2 / threads=16 / lookahead_threads=2 / sliced_threads=0 / nr=0 / decimate=0 / interlaced=0 / bluray_compat=0 / constrained_intra=0 / bframes=8 / b_pyramid=2 / b_adapt=2 / b_bias=0 / direct=3 / weightb=1 / open_gop=0 / weightp=2 / keyint=250 / keyint_min=23 / scenecut=40 / intra_refresh=0 / rc=crf / mbtree=0 / crf=17.0 / qcomp=0.60 / qpmin=0 / qpmax=69 / qpstep=4 / ip_ratio=1.40 / pb_ratio=1.30 / aq=3:0.60
Language : English
Default : Yes
Forced : No
Color range : Limited
Matrix coefficients : BT.709

Audio
ID : 2
Format : AC-3
Format/Info : Audio Coding 3
Commercial name : Dolby Digital
Format settings : Dolby Surround EX
Codec ID : A_AC3
Duration : 1 h 44 min
Bit rate mode : Constant
Bit rate : 640 kb/s
Channel(s) : 6 channels
Channel layout : L R C LFE Ls Rs
Sampling rate : 48.0 kHz
Frame rate : 31.250 FPS (1536 SPF)
Compression mode : Lossy
Stream size : 477 MiB (19%)
Title : Chinese
Language : Chinese
Service kind : Complete Main
Default : Yes
Forced : No

Text #1
ID : 3
Format : UTF-8
Codec ID : S_TEXT/UTF8
Codec ID/Info : UTF-8 Plain Text
Duration : 1 h 37 min
Bit rate : 40 b/s
Count of elements : 1441
Stream size : 28.9 KiB (0%)
Title : English Forced
Language : English
Default : Yes
Forced : Yes

Text #2
ID : 4
Format : PGS
Muxing mode : zlib
Codec ID : S_HDMV/PGS
Codec ID/Info : Picture based subtitle format used on BDs/HD-DVDs
Duration : 1 h 43 min
Bit rate : 25.9 kb/s
Count of elements : 3068
Stream size : 19.2 MiB (1%)
Title : English Forced PGS
Language : English
Default : No
Forced : No

Text #3
ID : 5
Format : PGS
Muxing mode : zlib
Codec ID : S_HDMV/PGS
Codec ID/Info : Picture based subtitle format used on BDs/HD-DVDs
Duration : 1 h 43 min
Bit rate : 27.2 kb/s
Count of elements : 3068
Stream size : 20.2 MiB (1%)
Title : Traditional Chinese PGS
Language : Chinese
Default : No
Forced : No

Text #4
ID : 6
Format : PGS
Muxing mode : zlib
Codec ID : S_HDMV/PGS
Codec ID/Info : Picture based subtitle format used on BDs/HD-DVDs
Duration : 1 h 43 min
Bit rate : 25.3 kb/s
Count of elements : 3068
Stream size : 18.8 MiB (1%)
Title : Simplified Chinese PGS
Language : Chinese
Default : No
Forced : No

Menu
00:00:00.000 : en:Chapter 01
00:05:28.286 : en:Chapter 02
00:10:24.791 : en:Chapter 03
00:16:19.604 : en:Chapter 04
00:20:12.336 : en:Chapter 05
00:26:28.754 : en:Chapter 06
00:32:28.113 : en:Chapter 07
00:38:26.596 : en:Chapter 08
00:45:21.260 : en:Chapter 09
00:50:00.539 : en:Chapter 10
00:58:24.710 : en:Chapter 11
01:03:42.402 : en:Chapter 12
01:08:14.132 : en:Chapter 13
01:14:02.938 : en:Chapter 14
01:19:02.821 : en:Chapter 15
01:21:53.200 : en:Chapter 16
01:27:06.638 : en:Chapter 17
01:29:57.142 : en:Chapter 18
01:33:58.758 : en:Chapter 19
01:37:34.682 : en:Chapter 20





1 个附件 售价 大小 下载 时间

The.Continent.2014.720p.BluRay.x264-YAMG.torrent 0 金币 25.87K 1092 次 9天前

#1楼
发帖时间:2022-01-15 11:26:41   |   回复数:0
游客组