topgood
武林盟主

[2012] [其它] [剧情] [BD-1080P] 爱 Love.2012.CHINESE.1080p.BluRay.x264.DTS-EDPH 11.85GB

-->

帖子完整标题:爱 Love.2012.CHINESE.1080p.BluRay.x264.DTS-EDPH 11.85GB



◎译  名 爱 / LOVE / Love
◎片  名 愛
◎年  代 2012
◎产  地 中国台湾 / 中国大陆
◎类  别 剧情 / 爱情
◎语  言 汉语普通话
◎上映日期 2012-02-13(中国大陆) / 2012-02-10(中国台湾)
◎IMDb链接 https://www.imdb.com/title/tt2202471/
◎豆瓣评分 6.9/10 (220466人评价)
◎豆瓣链接 https://movie.douban.com/subject/6730004/
◎片  长 128分钟(台湾)
◎导  演 钮承泽 Doze Niu Chen-Zer (id:1274411)
◎编  剧 曾莉婷 Li-ting Tseng (id:1407460)
      汪启楠 Qinan Wang (id:1322145)
      钮承泽 Doze Niu Chen-Zer (id:1274411)
◎演  员 舒淇 Qi Shu (id:1138320)
      赵又廷 Mark Chao (id:1274608)
      阮经天 Ethan Juan (id:1259866)
      陈意涵 Ivy Chen (id:1274316)
      郭采洁 Amber Kuo (id:1274814)
      彭于晏 Eddie Peng (id:1013782)
      钮承泽 Doze Niu Chen-Zer (id:1274411)
      龙劭华 Siu Wa Lung (id:1316680)
      于美人 Belle Yu (id:1321053)
      康晋荣 Chin-Jung Kang (id:1320834)
      王景春 Jingchun Wang (id:1275934)
      林沐然 Muran Lin (id:1385666)
      杨贵媚 Kuei-Mei Yang (id:1165442)
      丁强 Chiang Ting (id:1314952)
      李璇 Hsuan Li (id:1319936)
      小野 Yeh Hsiao (id:1318294)
      卜学亮 Hsueh-Liang Pu (id:1317824)
      朱芷莹 Chih-ying Chu (id:1322666)
      张海燕 Haiyan Zhang (id:1312740)
      张家鲁 Chia-lu Chang (id:1274308)
      杜家毅 Jiayi Du (id:1275274)
      凤小岳 Rhydian Vaughan (id:1274684)
      黄镫辉 Huang Teng-Hui (id:1275481)
      蔡昌宪 Chang-Hsien Tsai (id:1315231)
      陈汉典 Han Dian Chen (id:1274546)
      陈玉勋 Yu-Hsun Chen (id:1280588)
      黄健和 Teng-te Huang (id:1331396)
      邱彦翔 Ralf Ciou (id:1317174)
      纪帅 Shuai Ji (id:1371530)
      邱德洋 David Chiu (id:1352136)
      林玟谊 Grace Lin (id:1326980)
      璟宣 Elissa (id:1340605)
      福海 Hai Fu (id:1427924)
      钮承泽 Doze Niu Chen-Zer (id:1274411)
      黄志明 Chih-ming Huang (id:1325051)
      杨庭恺 Bernard Yang (id:1443208)
      陈建骐 Chien-Ci Chen (id:1316643)
      李屏宾 Mark Lee Ping Bing (id:1274482)
      陈建利 Jianli Chen (id:1331827)
      陈纯昆 Chun-Kun Chen (id:1325047)
      杜笃之 Du-Che Tu (id:1275159)

◎简  介
  台湾富商马克(赵又廷 饰)跟名媛方柔伊(舒淇 饰)有染,但却无法给她承诺。这令她极为伤心,气急败坏离开酒店,在街头遭遇酒店服务生小宽(阮经天 饰)偷拍,柔伊怒砸相机,随即与富商陆平(钮承泽 饰)驾车离去。原来柔伊本是陆平的情人,但是却无法获得一纸婚约。倒是因为那次相遇,她和口吃的小宽发生了一段感情……
小宽的妹妹宜珈(陈意涵 饰)是自行车选手,她的闺蜜是钮承泽的独女小霓(郭采洁 饰),后者习惯性跟她抱怨男友阿凯(彭于晏 饰)的诸般不好,但是宜珈却持相反意见并暗度陈仓。于是一道三角恋开始分割友情……
马克去北京出差,欲购一套四合院,与房地产中介小姐小叶(赵薇 饰)不打不相识,并在民警的怂恿下,阴错阳差充当了她儿子豆豆的父亲。从此,一段海峡之恋由此展开……

◎获奖情况 (共18项)
  第49届台北金马影展 (2012)
  金马奖 最佳导演(提名)
   └──钮承泽 (id:1274411)
  金马奖 最佳女配角(提名)
  金马奖 最佳造型设计(提名)
  金马奖 最佳原创配乐(提名)
   └──陈建骐 (id:1316643)

  第32届香港电影金像奖 (2013)
  最佳两岸华语电影(提名)

  第14届台北电影节 (2012)
  台北电影奖 最佳剧情长片(提名)
   └──钮承泽 (id:1274411)
  台北电影奖 最佳女配角奖
   └──郭采洁 (id:1274814)

  第11届中国长春电影节 (2012)
  金鹿奖 最佳导演(提名)
   └──钮承泽 (id:1274411)
  金鹿奖 最佳编剧(提名)
  金鹿奖 最佳女主角(提名)
   └──舒淇 (id:1138320)
  金鹿奖 最佳男配角(提名)
   └──钮承泽 (id:1274411)
  金鹿奖 最佳女配角(提名)
   └──陈意涵 (id:1274316)
  金鹿奖 最佳摄影(提名)

  第13届华语电影传媒大奖 (2013)
  最佳女配角(提名)
   └──郭采洁 (id:1274814)

  第19届北京大学生电影节 (2012)
  最佳导演奖(提名)
   └──钮承泽 (id:1274411)
  最受大学生欢迎导演
   └──钮承泽 (id:1274411)

  第3届豆瓣电影鑫像奖 (2013)
  鑫豆单元 最佳影片(华语)(提名)
  鑫豆单元 最佳女演员(华语)(提名)
   └──陈意涵 (id:1274316)

Video
ID : 1
Format : AVC
Format/Info : Advanced Video Codec
Format profile : [email protected]
Format settings : CABAC / 5 Ref Frames
Format settings, CABAC : Yes
Format settings, Reference frames : 5 frames
Codec ID : V_MPEG4/ISO/AVC
Duration : 2 h 7 min
Bit rate : 11.8 Mb/s
Width : 1 920 pixels
Height : 800 pixels
Display aspect ratio : 2.40:1
Frame rate mode : Constant
Frame rate : 24.000 FPS
Color space : YUV
Chroma subsampling : 4:2:0
Bit depth : 8 bits
Scan type : Progressive
Bits/(Pixel*Frame) : 0.319
Stream size : 10.5 GiB (89%)
Writing library : x264 core 163 r3059 b684ebe
Encoding settings : cabac=1 / ref=5 / deblock=1:-3:-3 / analyse=0x3:0x133 / me=umh / subme=11 / psy=1 / psy_rd=1.02:0.00 / mixed_ref=1 / me_range=32 / chroma_me=1 / trellis=2 / 8x8dct=1 / cqm=0 / deadzone=21,11 / fast_pskip=0 / chroma_qp_offset=-2 / threads=12 / lookahead_threads=3 / sliced_threads=0 / nr=0 / decimate=0 / interlaced=0 / bluray_compat=0 / constrained_intra=0 / bframes=16 / b_pyramid=2 / b_adapt=2 / b_bias=0 / direct=3 / weightb=1 / open_gop=0 / weightp=2 / keyint=250 / keyint_min=24 / scenecut=40 / intra_refresh=0 / rc_lookahead=250 / rc=crf / mbtree=0 / crf=20.9 / qcomp=0.65 / qpmin=0 / qpmax=69 / qpstep=4 / vbv_maxrate=62500 / vbv_bufsize=78125 / crf_max=0.0 / nal_hrd=none / filler=0 / ip_ratio=1.30 / pb_ratio=1.20 / aq=3:0.80
Default : No
Forced : No
Color range : Limited
Color primaries : BT.709
Matrix coefficients : BT.709

Audio
ID : 2
Format : DTS
Format/Info : Digital Theater Systems
Codec ID : A_DTS
Duration : 2 h 7 min
Bit rate mode : Constant
Bit rate : 1 509 kb/s
Channel(s) : 6 channels
Channel layout : C L R Ls Rs LFE
Sampling rate : 48.0 kHz
Frame rate : 93.750 FPS (512 SPF)
Bit depth : 16 bits
Compression mode : Lossy
Stream size : 1.35 GiB (11%)
Title : Mandarin
Language : Chinese
Default : Yes
Forced : No

Text #1
ID : 3
Format : UTF-8
Codec ID : S_TEXT/UTF8
Codec ID/Info : UTF-8 Plain Text
Duration : 2 h 2 min
Bit rate : 43 b/s
Count of elements : 1781
Stream size : 39.2 KiB (0%)
Language : English
Default : Yes
Forced : No

Text #2
ID : 4
Format : UTF-8
Codec ID : S_TEXT/UTF8
Codec ID/Info : UTF-8 Plain Text
Duration : 2 h 2 min
Bit rate : 42 b/s
Count of elements : 1753
Stream size : 37.8 KiB (0%)
Title : Simplified
Language : Chinese
Default : No
Forced : No

Text #3
ID : 5
Format : UTF-8
Codec ID : S_TEXT/UTF8
Codec ID/Info : UTF-8 Plain Text
Duration : 2 h 2 min
Bit rate : 42 b/s
Count of elements : 1753
Stream size : 37.8 KiB (0%)
Title : Traditional
Language : Chinese
Default : No
Forced : No

Menu
00:00:00.000 : en:Chapter 01
00:26:52.791 : en:Chapter 02
00:41:34.583 : en:Chapter 03
00:59:55.916 : en:Chapter 04
01:22:15.791 : en:Chapter 05
01:45:32.791 : en:Chapter 06





1 个附件 售价 大小 下载 时间

Love.2012.CHINESE.1080p.BluRay.x264.DTS-EDPH.torrent 0 金币 15.42K 1673 次 4月前

#1楼
发帖时间:2022-01-18 17:38:08   |   回复数:1
kola13
武林盟主
感谢分享
4月前 #2楼
游客组