topgood
武林盟主

[2016] [欧美] [剧情] [WEB-1080P] 李尔王 Royal.Shakespeare.Company.King.Lear.2016.1080p.WEBRip.x264-RARBG 3.46GB

-->

帖子完整标题:李尔王 Royal.Shakespeare.Company.King.Lear.2016.1080p.WEBRip.x264-RARBG 3.46GB



◎标  题 李尔王
◎译  名 皇家莎士比亚剧团现场:李尔王
◎片  名 Royal Shakespeare Company: King Lear
◎年  代 2016
◎产  地 英国
◎类  别 剧情
◎语  言 英语
◎上映日期 2016-10-12(英国)
◎IMDb评分 7.5/10 (57人评价)
◎IMDb链接 https://www.imdb.com/title/tt6146394/
◎豆瓣评分 8.3/10 (186人评价)
◎豆瓣链接 https://movie.douban.com/subject/26893499/
◎片  长 180分钟

◎简  介
  李尔王(Romayne Andrews 饰)年事已高,他决定将广袤的国土分给自己的三个女儿科迪莉亚(Natalie Simpson 饰)、格纳利尔(Nia Gwynne 饰)和里根(Oliver Johnstone 饰)。李尔王让三个女儿说出各自心中对父王的爱戴,格纳利尔和里根极尽花言巧语之所能,得到了李尔王的赞赏,小女儿科迪莉亚质朴而诚实,反而遭到了无情的驱逐。
失去了家园的科迪莉亚成为了法国的王后,而得到了父亲大片疆土的大女儿和二女儿则将李尔王赶出了家门。直到流落荒野无处可去,李尔王才明白自己犯了天大的错误,他一边责怪自己的愚昧,一边心痛科迪莉亚的遭遇。得知了李尔王的境遇,科迪莉亚组织了军队准备向老家进攻,不幸的是,军队遭遇惨败,科迪莉亚也遭到了逮捕。最终,科迪莉亚被处死,年迈的李尔王在痛苦中亦追随而去。

Video
ID : 1
Format : AVC
Format/Info : Advanced Video Codec
Format profile : [email protected]
Format settings : CABAC / 4 Ref Frames
Format settings, CABAC : Yes
Format settings, Reference frames : 4 frames
Codec ID : avc1
Codec ID/Info : Advanced Video Coding
Duration : 3 h 1 min
Bit rate : 2 500 kb/s
Width : 1 920 pixels
Height : 1 080 pixels
Display aspect ratio : 16:9
Frame rate mode : Constant
Frame rate : 25.000 FPS
Color space : YUV
Chroma subsampling : 4:2:0
Bit depth : 8 bits
Scan type : Progressive
Bits/(Pixel*Frame) : 0.048
Stream size : 3.17 GiB (92%)
Writing library : x264 core 152 r2851M ba24899
Encoding settings : cabac=1 / ref=4 / deblock=1:-1:-1 / analyse=0x3:0x113 / me=umh / subme=9 / psy=1 / psy_rd=1.00:0.15 / mixed_ref=1 / me_range=24 / chroma_me=1 / trellis=2 / 8x8dct=1 / cqm=0 / deadzone=21,11 / fast_pskip=1 / chroma_qp_offset=-3 / threads=16 / lookahead_threads=4 / sliced_threads=0 / nr=0 / decimate=1 / interlaced=0 / bluray_compat=0 / constrained_intra=0 / bframes=3 / b_pyramid=2 / b_adapt=2 / b_bias=0 / direct=3 / weightb=1 / open_gop=0 / weightp=2 / keyint=250 / keyint_min=25 / scenecut=40 / intra_refresh=0 / rc_lookahead=50 / rc=2pass / mbtree=1 / bitrate=2500 / ratetol=1.0 / qcomp=0.60 / qpmin=0 / qpmax=69 / qpstep=4 / cplxblur=20.0 / qblur=0.5 / vbv_maxrate=31250 / vbv_bufsize=31250 / nal_hrd=none / filler=0 / ip_ratio=1.40 / aq=3:1.00
Encoded date : UTC 2022-06-23 02:18:55
Tagged date : UTC 2022-06-23 02:18:55
Codec configuration box : avcC

Audio
ID : 2
Format : AAC LC
Format/Info : Advanced Audio Codec Low Complexity
Codec ID : mp4a-40-2
Duration : 3 h 1 min
Bit rate mode : Constant
Bit rate : 224 kb/s
Channel(s) : 6 channels
Channel layout : C L R Ls Rs LFE
Sampling rate : 48.0 kHz
Frame rate : 46.875 FPS (1024 SPF)
Compression mode : Lossy
Stream size : 291 MiB (8%)
Language : English
Default : Yes
Alternate group : 1
Encoded date : UTC 2022-06-23 02:18:55
Tagged date : UTC 2022-06-23 02:18:55





1 个附件 售价 大小 下载 时间

Royal.Shakespeare.Company.King.Lear.2016.1080p.WEBRip.x264-RARBG.torrent 0 金币 18.03K 623 次 2天前

#1楼
发帖时间:2022-06-23 10:58:02   |   回复数:0
游客组