travismk
一代宗师

[更 早] [其它] [剧情] [BD-1080P] 迷离杀手 The.Disappearance.1977.1080p.BluRay.x264-OLDTiME 11.84GB

-->

帖子完整标题:迷离杀手 The.Disappearance.1977.1080p.BluRay.x264-OLDTiME 11.84GB



◎标  题 迷离杀手
◎片  名 The Disappearance
◎年  代 1977
◎产  地 英国 / 加拿大
◎类  别 剧情 / 惊悚
◎语  言 英语
◎上映日期 1977-09-17
◎IMDb评分 5.7/10 (487人评价)
◎IMDb链接 https://www.imdb.com/title/tt0075944/
◎豆瓣链接 https://movie.douban.com/subject/3117940/
◎片  长 100 分钟 / Canada: 88 分钟
◎导  演 斯图尔特·库柏 Stuart Cooper
◎编  剧 保罗·梅尔斯贝格 Paul Mayersberg
      德里克·马洛 Derek Marlowe
◎演  员 弗朗辛·拉塞特 Francine Racette
      罗宾·萨奇斯 Robin Sachs
      约翰·赫特 John Hurt
      诺曼·埃什利 Norman Eshley
      唐纳德·萨瑟兰 Donald Sutherland
      弗吉尼亚·麦肯娜 Virginia McKenna
      大卫·沃纳 David Warner
      彼得·鲍勒斯 Peter Bowles
      派翠西亚·霍吉 Patricia Hodge
      克里斯托弗·普卢默 Christopher Plummer
      戴维·海明斯 David Hemmings
      Maureen Beck Maureen Beck
      迈克尔·艾瑞克·克莱默 Michael Eric Kramer

◎标  签 BDMV / 1977 / 英国电影 / 英国 / 剧情

◎简  介
    Thriller about a contract killer whose wife has disappeared. When he is hired by an international organisation to carry out a "shy" or hit, he suspects they are connected with her disappearance.

Video
ID : 1
Format : AVC
Format/Info : Advanced Video Codec
Format profile : [email protected]
Format settings : CABAC / 4 Ref Frames
Format settings, CABAC : Yes
Format settings, Reference frames : 4 frames
Codec ID : V_MPEG4/ISO/AVC
Duration : 1 h 31 min
Bit rate : 18.3 Mb/s
Width : 1 918 pixels
Height : 1 038 pixels
Display aspect ratio : 1.85:1
Frame rate mode : Constant
Frame rate : 23.976 (24000/1001/189150) FPS
Color space : YUV
Chroma subsampling : 4:2:0
Bit depth : 8 bits
Scan type : Progressive
Bits/(Pixel*Frame) : 0.384
Stream size : 11.7 GiB (99%)
Writing library : x264 core 164 r3094 bfc87b7
Encoding settings : cabac=1 / ref=4 / deblock=1:-3:-3 / analyse=0x3:0x133 / me=umh / subme=9 / psy=1 / psy_rd=1.00:0.00 / mixed_ref=1 / me_range=16 / chroma_me=1 / trellis=2 / 8x8dct=1 / cqm=0 / deadzone=21,11 / fast_pskip=0 / chroma_qp_offset=-2 / threads=32 / lookahead_threads=2 / sliced_threads=0 / nr=0 / decimate=1 / interlaced=0 / bluray_compat=0 / constrained_intra=0 / bframes=3 / b_pyramid=2 / b_adapt=2 / b_bias=0 / direct=3 / weightb=1 / open_gop=0 / weightp=2 / keyint=250 / keyint_min=23 / scenecut=40 / intra_refresh=0 / rc_lookahead=60 / rc=crf / mbtree=1 / crf=17.5 / qcomp=0.60 / qpmin=0 / qpmax=69 / qpstep=4 / ip_ratio=1.40 / aq=1:1.00
Language : English
Default : Yes
Forced : No

Audio
ID : 2
Format : FLAC
Format/Info : Free Lossless Audio Codec
Codec ID : A_FLAC
Duration : 1 h 31 min
Bit rate mode : Variable
Bit rate : 269 kb/s
Channel(s) : 2 channels
Channel layout : L R
Sampling rate : 48.0 kHz
Frame rate : 11.719 FPS (4096 SPF)
Bit depth : 16 bits
Compression mode : Lossless
Stream size : 175 MiB (1%)
Writing library : libFLAC 1.3.2 (UTC 2017-01-01)
Language : English
Default : Yes
Forced : No

Text #1
ID : 3
Format : PGS
Muxing mode : zlib
Codec ID : S_HDMV/PGS
Codec ID/Info : Picture based subtitle format used on BDs/HD-DVDs
Duration : 1 h 26 min
Bit rate : 10.2 kb/s
Count of elements : 1425
Stream size : 6.35 MiB (0%)
Language : English
Default : No
Forced : No

Text #2
ID : 4
Format : PGS
Muxing mode : zlib
Codec ID : S_HDMV/PGS
Codec ID/Info : Picture based subtitle format used on BDs/HD-DVDs
Duration : 1 h 26 min
Bit rate : 11.9 kb/s
Count of elements : 1425
Stream size : 7.37 MiB (0%)
Language : German
Default : No
Forced : No

Menu
00:00:00.000 : en:Chapter 01
00:01:24.501 : en:Chapter 02
00:09:37.327 : en:Chapter 03
00:18:32.528 : en:Chapter 04
00:22:57.585 : en:Chapter 05
00:30:58.273 : en:Chapter 06
00:37:15.108 : en:Chapter 07
00:45:30.645 : en:Chapter 08
00:56:09.950 : en:Chapter 09
01:04:30.408 : en:Chapter 10
01:19:45.322 : en:Chapter 11





1 个附件 售价 大小 下载 时间

The.Disappearance.1977.1080p.BluRay.x264-OLDTiME.torrent 0 金币 15.54K 308 次 2天前

#1楼
发帖时间:2022-06-23 21:54:41   |   回复数:0
游客组