topgood
一代宗师

[2022] [欧美] [剧情] [BD-4K] 嘻哈梦想 On.The.Come.Up.2022.2160p.WEB-DL.DDP5.1.Atmos.DV.MKV.x265-NAISU 11.88GB

-->

帖子完整标题:嘻哈梦想 On.The.Come.Up.2022.2160p.WEB-DL.DDP5.1.Atmos.DV.MKV.x265-NAISU 11.88GB



◎标  题 嘻哈梦想
◎片  名 On the Come Up
◎年  代 2022
◎产  地 美国
◎类  别 剧情 / 喜剧 / 音乐
◎语  言 英语
◎上映日期 2022-09-09(多伦多电影节) / 2022-09-23(美国网络)
◎IMDb评分 6.4/10 (59人评价)
◎IMDb链接 https://www.imdb.com/title/tt9783730/
◎豆瓣链接 https://movie.douban.com/subject/34970178/
◎片  长 115分钟
◎导  演 桑娜·莱瑟 Sanaa Lathan
◎编  剧 卡伊·耶贡 Kay Oyegun
      安吉·托马斯 Angie Thomas
◎演  员 桑娜·莱瑟 Sanaa Lathan
      达明·乔伊·伦道夫 Da'Vine Joy Randolph
      Lil Yachty Lil Yachty
      马索·曼恩 Method Man
      迈克·艾普斯 Mike Epps
      尼贾·布雷尼亚 Nijah Brenea
      库利·卡尔文 Cuyle Carvin
      凯莉·科林斯·林茨 Kelly Collins Lintz
      施奎塔·詹姆斯 Shiquita James
      杰克琳·怀特 Jaclyn White
      蒂姆·洛斯 Tim Ross
      布鲁诺·罗斯 Bruno Rose

◎简  介
  As the daughter of an underground hip-hop legend who died right before he hit big, Bri's got massive shoes to fill. But it's hard as she is labeled a hoodlum at school, and faces financial crisis after her mom loses her job. So Bri pours her anger and frustration into her first song, which goes viral, for all the wrong reasons. Bri soon finds herself at the center of a controve...

Video
ID : 1
Format : HEVC
Format/Info : High Efficiency Video Coding
Format profile : Main [email protected]@Main
HDR format : Dolby Vision, Version 1.0, dvhe.05.06, BL+RPU
Codec ID : V_MPEGH/ISO/HEVC
Duration : 1 h 55 min
Bit rate : 13.6 Mb/s
Width : 3 840 pixels
Height : 2 160 pixels
Display aspect ratio : 16:9
Frame rate mode : Constant
Frame rate : 23.976 (24000/1001/189150) FPS
Color space : YUV
Chroma subsampling : 4:2:0 (Type 0)
Bit depth : 10 bits
Bits/(Pixel*Frame) : 0.068
Stream size : 11.0 GiB (93%)
Default : Yes
Forced : No
Color range : Full

Audio
ID : 2
Format : E-AC-3 JOC
Format/Info : Enhanced AC-3 with Joint Object Coding
Commercial name : Dolby Digital Plus with Dolby Atmos
Codec ID : A_EAC3
Duration : 1 h 55 min
Bit rate mode : Constant
Bit rate : 768 kb/s
Channel(s) : 6 channels
Channel layout : L R C LFE Ls Rs
Sampling rate : 48.0 kHz
Frame rate : 31.250 FPS (1536 SPF)
Compression mode : Lossy
Stream size : 637 MiB (5%)
Language : English
Service kind : Complete Main
Default : Yes
Forced : No
Complexity index : 16
Number of dynamic objects : 15
Bed channel count : 1 channel
Bed channel configuration : LFE

Text
ID : 3
Format : UTF-8
Codec ID : S_TEXT/UTF8
Codec ID/Info : UTF-8 Plain Text
Title : English [SDH]
Language : English
Default : No
Forced : No





1 个附件 售价 大小 下载 时间

On.The.Come.Up.2022.2160p.WEB-DL.DDP5.1.Atmos.DV.MKV.x265-NAISU.torrent 0 金币 15.49K 147 次 1天前

#1楼
发帖时间:2022-09-23 17:46:35   |   回复数:0
游客组