travismk
一代宗师

[2018] [欧美] [科幻] [WEB-1080P] 病毒劫持 CTRL.2018.1080p.AMZN.WEBRip.DDP5.1.x264-SiGLA 5.47GB

-->

帖子完整标题:病毒劫持 CTRL.2018.1080p.AMZN.WEBRip.DDP5.1.x264-SiGLA 5.47GB



◎标  题 病毒劫持
◎译  名 控制
◎片  名 CTRL
◎年  代 2018
◎产  地 英国
◎类  别 科幻 / 惊悚 / 恐怖
◎语  言 英语
◎上映日期 2018-08-25(英国)
◎IMDb评分 2.9/10 (174人评价)
◎IMDb链接 https://www.imdb.com/title/tt4738626/
◎豆瓣评分 3.3/10 (139人评价)
◎豆瓣链接 https://movie.douban.com/subject/30294952/
◎片  长 80分钟

◎标  签 科幻 / 英国 / 惊悚 / 英国电影 / 网络 / 2018 / 恐怖 / 病毒

◎简  介
    A reclusive programmer, his sister and her new boyfriend are held hostage by a rapidly evolving computer virus.

Video
ID : 1
Format : AVC
Format/Info : Advanced Video Codec
Format profile : [email protected]
Format settings : CABAC / 4 Ref Frames
Format settings, CABAC : Yes
Format settings, Reference frames : 4 frames
Codec ID : V_MPEG4/ISO/AVC
Duration : 1 h 20 min
Bit rate mode : Constant
Bit rate : 9 136 kb/s
Nominal bit rate : 10 000 kb/s
Width : 1 920 pixels
Height : 1 080 pixels
Display aspect ratio : 16:9
Frame rate mode : Constant
Frame rate : 23.976 (24000/1001/189150) FPS
Color space : YUV
Chroma subsampling : 4:2:0
Bit depth : 8 bits
Scan type : Progressive
Bits/(Pixel*Frame) : 0.184
Stream size : 5.11 GiB (93%)
Default : Yes
Forced : No
Color range : Limited
Color primaries : BT.709
Transfer characteristics : BT.709
Matrix coefficients : BT.709

Audio
ID : 2
Format : E-AC-3
Format/Info : Enhanced AC-3
Commercial name : Dolby Digital Plus
Codec ID : A_EAC3
Duration : 1 h 20 min
Bit rate mode : Constant
Bit rate : 640 kb/s
Channel(s) : 6 channels
Channel layout : L R C LFE Ls Rs
Sampling rate : 48.0 kHz
Frame rate : 31.250 FPS (1536 SPF)
Compression mode : Lossy
Stream size : 366 MiB (7%)
Language : English
Service kind : Complete Main
Default : Yes
Forced : No

Text #1
ID : 3
Format : UTF-8
Codec ID : S_TEXT/UTF8
Codec ID/Info : UTF-8 Plain Text
Duration : 1 h 14 min
Bit rate : 27 b/s
Frame rate : 0.130 FPS
Count of elements : 580
Stream size : 14.8 KiB (0%)
Language : English
Default : No
Forced : No

Text #2
ID : 4
Format : UTF-8
Codec ID : S_TEXT/UTF8
Codec ID/Info : UTF-8 Plain Text
Duration : 1 h 19 min
Bit rate : 37 b/s
Frame rate : 0.186 FPS
Count of elements : 892
Stream size : 22.1 KiB (0%)
Title : SDH
Language : English
Default : No
Forced : No





1 个附件 售价 大小 下载 时间

CTRL.2018.1080p.AMZN.WEBRip.DDP5.1.x264-SiGLA.torrent 0 金币 14.28K 385 次 2月前

#1楼
发帖时间:2022-11-28 17:47:57   |   回复数:0
游客组