BILL36
隐世仙人♂

[2023] [台湾] [剧情] [WEB-1080P] 人选之人—造浪者[全8集][国语音轨/简繁英字幕].Wave.Makers.2023.S01.1080p.NF.WEB-DL.x264.DDP5.1-Huawe

-->

完整标题:人选之人—造浪者[全8集][国语音轨/简繁英字幕].Wave.Makers.2023.S01.1080p.NF.WEB-DL.x264.DDP5.1-Huawei 15.47GB



◎标  题 人选之人—造浪者
◎译  名 人选之人:造浪者
◎片  名 人選之人—造浪者
◎年  代 2023
◎产  地 中国台湾
◎类  别 剧情
◎语  言 汉语普通话
◎上映日期 2023年4月28日
◎IMDb链接 https://www.imdb.com/title/tt26687035/
◎豆瓣链接 https://movie.douban.com/subject/35633731/
◎片  长 分钟
◎导  演 林君阳
◎演  员 谢盈萱
      王净
      黄健玮
      卜学亮
      潘慧如
      廖怡祾
      潘纲大
      胡玮杰
      詹怀云
      戴立忍

◎简  介
  生在政治世家的翁文方(谢盈萱饰),在竞选议员连任失利后,进入公正党担任文宣部副主任兼发言人,并带领着一群文宣幕僚们,在实践理想的过程中,面临到许多价值抉择与信仰的挑战。 《人选之人—造浪者》Netflix 即将上线。

##### MediaInfo ######
General
Unique ID : 79473113060569423793541900011703768055 (0x3BC9F6FE8E19D708739125E65D8613F7)
Complete name : Wave.Makers.2023.S01E01.1080p.NF.WEB-DL.x264.DDP5.1-Huawei.mkv
Format : Matroska
Format version : Version 4
File size : 1.88 GiB
Duration : 48 min 38 s
Overall bit rate mode : Variable
Overall bit rate : 5 534 kb/s
Movie name : Episode 1
Encoded date : UTC 2023-04-28 12:13:22
Writing application : mkvmerge v75.0.0 ('Goliath') 64-bit
Writing library : libebml v1.4.4 + libmatroska v1.7.1

Video
ID : 1
Format : AVC
Format/Info : Advanced Video Codec
Format profile : Main@L4
Format settings : CABAC / 3 Ref Frames
Format settings, CABAC : Yes
Format settings, Reference frames : 3 frames
Codec ID : V_MPEG4/ISO/AVC
Duration : 48 min 38 s
Bit rate mode : Variable
Bit rate : 5 000 kb/s
Maximum bit rate : 7 500 kb/s
Width : 1 920 pixels
Height : 1 080 pixels
Display aspect ratio : 16:9
Frame rate mode : Constant
Frame rate : 24.000 FPS
Color space : YUV
Chroma subsampling : 4:2:0
Bit depth : 8 bits
Scan type : Progressive
Bits/(Pixel*Frame) : 0.100
Stream size : 1.66 GiB (88%)
Writing library : x264 core 148 r2727 7d026e8
Encoding settings : cabac=1 / ref=3 / deblock=1:0:0 / analyse=0x1:0x111 / me=umh / subme=10 / psy=1 / psy_rd=1.00:0.00 / mixed_ref=1 / me_range=24 / chroma_me=1 / trellis=2 / 8x8dct=0 / cqm=0 / deadzone=21,11 / fast_pskip=1 / chroma_qp_offset=-2 / threads=8 / lookahead_threads=1 / sliced_threads=0 / nr=0 / decimate=1 / interlaced=0 / bluray_compat=0 / stitchable=1 / constrained_intra=0 / bframes=2 / b_pyramid=0 / b_adapt=2 / b_bias=0 / direct=3 / weightb=1 / open_gop=0 / weightp=2 / keyint=48 / keyint_min=25 / scenecut=0 / intra_refresh=0 / rc_lookahead=48 / rc=2pass / mbtree=1 / bitrate=5000 / ratetol=1.0 / qcomp=0.50 / qpmin=6 / qpmax=51 / qpstep=4 / cplxblur=20.0 / qblur=0.5 / vbv_maxrate=7500 / vbv_bufsize=10000 / nal_hrd=vbr / filler=0 / ip_ratio=1.40 / aq=1:1.00
Default : Yes
Forced : No

Audio
ID : 2
Format : E-AC-3
Format/Info : Enhanced AC-3
Commercial name : Dolby Digital Plus
Codec ID : A_EAC3
Duration : 48 min 38 s
Bit rate mode : Constant
Bit rate : 640 kb/s
Channel(s) : 6 channels
Channel layout : L R C LFE Ls Rs
Sampling rate : 48.0 kHz
Frame rate : 31.250 FPS (1536 SPF)
Compression mode : Lossy
Stream size : 223 MiB (12%)
Title : Mandarin (Guoyu) [Original]
Service kind : Complete Main
Default : Yes
Forced : No

Text #1
ID : 3
Format : UTF-8
Codec ID : S_TEXT/UTF8
Codec ID/Info : UTF-8 Plain Text
Duration : 48 min 2 s
Bit rate : 162 b/s
Count of elements : 1106
Stream size : 57.3 KiB (0%)
Language : Arabic
Default : No
Forced : No

Text #2
ID : 4
Format : UTF-8
Codec ID : S_TEXT/UTF8
Codec ID/Info : UTF-8 Plain Text
Duration : 48 min 2 s
Bit rate : 85 b/s
Count of elements : 1104
Stream size : 30.2 KiB (0%)
Language : Czech
Default : No
Forced : No

Text #3
ID : 5
Format : UTF-8
Codec ID : S_TEXT/UTF8
Codec ID/Info : UTF-8 Plain Text
Duration : 47 min 59 s
Bit rate : 84 b/s
Count of elements : 1102
Stream size : 29.7 KiB (0%)
Language : Danish
Default : No
Forced : No

Text #4
ID : 6
Format : UTF-8
Codec ID : S_TEXT/UTF8
Codec ID/Info : UTF-8 Plain Text
Duration : 48 min 3 s
Bit rate : 87 b/s
Count of elements : 1083
Stream size : 30.9 KiB (0%)
Language : German
Default : No
Forced : No

Text #5
ID : 7
Format : UTF-8
Codec ID : S_TEXT/UTF8
Codec ID/Info : UTF-8 Plain Text
Duration : 48 min 2 s
Bit rate : 141 b/s
Count of elements : 1104
Stream size : 49.8 KiB (0%)
Language : Greek
Default : No
Forced : No

Text #6
ID : 8
Format : UTF-8
Codec ID : S_TEXT/UTF8
Codec ID/Info : UTF-8 Plain Text
Duration : 48 min 2 s
Bit rate : 96 b/s
Count of elements : 1101
Stream size : 33.9 KiB (0%)
Language : English
Default : No
Forced : No

Text #7
ID : 9
Format : UTF-8
Codec ID : S_TEXT/UTF8
Codec ID/Info : UTF-8 Plain Text
Duration : 48 min 2 s
Bit rate : 87 b/s
Count of elements : 1104
Stream size : 30.9 KiB (0%)
Title : Latin American
Language : Spanish
Default : No
Forced : No

Text #8
ID : 10
Format : UTF-8
Codec ID : S_TEXT/UTF8
Codec ID/Info : UTF-8 Plain Text
Duration : 48 min 2 s
Bit rate : 72 b/s
Count of elements : 1104
Stream size : 25.7 KiB (0%)
Title : European
Language : Spanish
Default : No
Forced : No

Text #9
ID : 11
Format : UTF-8
Codec ID : S_TEXT/UTF8
Codec ID/Info : UTF-8 Plain Text
Duration : 48 min 3 s
Bit rate : 83 b/s
Count of elements : 1089
Stream size : 29.3 KiB (0%)
Language : Finnish
Default : No
Forced : No

Text #10
ID : 12
Format : UTF-8
Codec ID : S_TEXT/UTF8
Codec ID/Info : UTF-8 Plain Text
Duration : 48 min 3 s
Bit rate : 93 b/s
Count of elements : 1098
Stream size : 32.8 KiB (0%)
Language : fil
Default : No
Forced : No

Text #11
ID : 13
Format : UTF-8
Codec ID : S_TEXT/UTF8
Codec ID/Info : UTF-8 Plain Text
Duration : 48 min 2 s
Bit rate : 85 b/s
Count of elements : 1010
Stream size : 29.9 KiB (0%)
Language : French
Default : No
Forced : No

Text #12
ID : 14
Format : UTF-8
Codec ID : S_TEXT/UTF8
Codec ID/Info : UTF-8 Plain Text
Duration : 48 min 2 s
Bit rate : 138 b/s
Count of elements : 1106
Stream size : 48.9 KiB (0%)
Language : Hebrew
Default : No
Forced : No

Text #13
ID : 15
Format : UTF-8
Codec ID : S_TEXT/UTF8
Codec ID/Info : UTF-8 Plain Text
Duration : 48 min 3 s
Bit rate : 78 b/s
Count of elements : 1104
Stream size : 27.5 KiB (0%)
Language : Croatian
Default : No
Forced : No

Text #14
ID : 16
Format : UTF-8
Codec ID : S_TEXT/UTF8
Codec ID/Info : UTF-8 Plain Text
Duration : 48 min 2 s
Bit rate : 88 b/s
Count of elements : 1081
Stream size : 31.0 KiB (0%)
Language : Hungarian
Default : No
Forced : No

Text #15
ID : 17
Format : UTF-8
Codec ID : S_TEXT/UTF8
Codec ID/Info : UTF-8 Plain Text
Duration : 48 min 2 s
Bit rate : 87 b/s
Count of elements : 1068
Stream size : 30.8 KiB (0%)
Language : Indonesian
Default : No
Forced : No

Text #16
ID : 18
Format : UTF-8
Codec ID : S_TEXT/UTF8
Codec ID/Info : UTF-8 Plain Text
Duration : 48 min 3 s
Bit rate : 84 b/s
Count of elements : 1104
Stream size : 29.6 KiB (0%)
Language : Italian
Default : No
Forced : No

Text #17
ID : 19
Format : UTF-8
Codec ID : S_TEXT/UTF8
Codec ID/Info : UTF-8 Plain Text
Duration : 48 min 3 s
Bit rate : 71 b/s
Count of elements : 784
Stream size : 25.1 KiB (0%)
Language : Japanese
Default : No
Forced : No

Text #18
ID : 20
Format : UTF-8
Codec ID : S_TEXT/UTF8
Codec ID/Info : UTF-8 Plain Text
Duration : 48 min 2 s
Bit rate : 116 b/s
Count of elements : 1098
Stream size : 40.9 KiB (0%)
Language : Korean
Default : No
Forced : No

Text #19
ID : 21
Format : UTF-8
Codec ID : S_TEXT/UTF8
Codec ID/Info : UTF-8 Plain Text
Duration : 48 min 2 s
Bit rate : 93 b/s
Count of elements : 1093
Stream size : 32.9 KiB (0%)
Language : Malay
Default : No
Forced : No

Text #20
ID : 22
Format : UTF-8
Codec ID : S_TEXT/UTF8
Codec ID/Info : UTF-8 Plain Text
Duration : 48 min 2 s
Bit rate : 86 b/s
Count of elements : 1095
Stream size : 30.6 KiB (0%)
Language : Norwegian Bokmal
Default : No
Forced : No

Text #21
ID : 23
Format : UTF-8
Codec ID : S_TEXT/UTF8
Codec ID/Info : UTF-8 Plain Text
Duration : 48 min 2 s
Bit rate : 85 b/s
Count of elements : 1071
Stream size : 30.1 KiB (0%)
Language : Dutch
Default : No
Forced : No

Text #22
ID : 24
Format : UTF-8
Codec ID : S_TEXT/UTF8
Codec ID/Info : UTF-8 Plain Text
Duration : 48 min 3 s
Bit rate : 68 b/s
Count of elements : 1098
Stream size : 24.2 KiB (0%)
Language : Polish
Default : No
Forced : No

Text #23
ID : 25
Format : UTF-8
Codec ID : S_TEXT/UTF8
Codec ID/Info : UTF-8 Plain Text
Duration : 48 min 2 s
Bit rate : 80 b/s
Count of elements : 1037
Stream size : 28.2 KiB (0%)
Title : Brazilian
Language : Portuguese
Default : No
Forced : No

Text #24
ID : 26
Format : UTF-8
Codec ID : S_TEXT/UTF8
Codec ID/Info : UTF-8 Plain Text
Duration : 48 min 2 s
Bit rate : 93 b/s
Count of elements : 1057
Stream size : 32.9 KiB (0%)
Title : European
Language : Portuguese
Default : No
Forced : No

Text #25
ID : 27
Format : UTF-8
Codec ID : S_TEXT/UTF8
Codec ID/Info : UTF-8 Plain Text
Duration : 48 min 2 s
Bit rate : 92 b/s
Count of elements : 1087
Stream size : 32.7 KiB (0%)
Language : Romanian
Default : No
Forced : No

Text #26
ID : 28
Format : UTF-8
Codec ID : S_TEXT/UTF8
Codec ID/Info : UTF-8 Plain Text
Duration : 48 min 2 s
Bit rate : 92 b/s
Count of elements : 1103
Stream size : 32.4 KiB (0%)
Language : Swedish
Default : No
Forced : No

Text #27
ID : 29
Format : UTF-8
Codec ID : S_TEXT/UTF8
Codec ID/Info : UTF-8 Plain Text
Duration : 48 min 3 s
Bit rate : 233 b/s
Count of elements : 1098
Stream size : 82.2 KiB (0%)
Language : Thai
Default : No
Forced : No

Text #28
ID : 30
Format : UTF-8
Codec ID : S_TEXT/UTF8
Codec ID/Info : UTF-8 Plain Text
Duration : 48 min 2 s
Bit rate : 90 b/s
Count of elements : 1104
Stream size : 31.9 KiB (0%)
Language : Turkish
Default : No
Forced : No

Text #29
ID : 31
Format : UTF-8
Codec ID : S_TEXT/UTF8
Codec ID/Info : UTF-8 Plain Text
Duration : 48 min 2 s
Bit rate : 139 b/s
Count of elements : 1105
Stream size : 49.0 KiB (0%)
Language : Ukrainian
Default : No
Forced : No

Text #30
ID : 32
Format : UTF-8
Codec ID : S_TEXT/UTF8
Codec ID/Info : UTF-8 Plain Text
Duration : 48 min 2 s
Bit rate : 125 b/s
Count of elements : 1097
Stream size : 44.2 KiB (0%)
Language : Vietnamese
Default : No
Forced : No

Text #31
ID : 33
Format : UTF-8
Codec ID : S_TEXT/UTF8
Codec ID/Info : UTF-8 Plain Text
Duration : 48 min 12 s
Bit rate : 95 b/s
Count of elements : 1144
Stream size : 33.7 KiB (0%)
Title : Simplified
Language : Chinese
Default : No
Forced : No

Text #32
ID : 34
Format : UTF-8
Codec ID : S_TEXT/UTF8
Codec ID/Info : UTF-8 Plain Text
Duration : 45 min 24 s
Bit rate : 95 b/s
Count of elements : 1081
Stream size : 31.7 KiB (0%)
Title : Traditional
Language : Chinese
Default : No
Forced : No

Menu
00:00:00.000 : en:Part 01
00:46:24.450 : en:Credits

点击图片可查看大图

软字幕无法在截图上展现,HDR版本/杜比视界版本截图会出现颜色异常,请使用支持的设备播放!

部分资源为软字幕,移动端推荐播放器:MxPlayer,nPlayer,infuse ,其他播放器请自行尝试。

部分资源为软字幕,电脑端推荐播放器:PotPlayer,完美解码,KMPLAYER,其他播放器请自行尝试。



1 个附件 售价 大小 下载 时间

Wave.Makers.2023.S01.1080p.NF.WEB-DL.x264.DDP5.1-Huawei[BTBTT].torrent 0 金币 42.29K 7973 次 12月前

#1楼
发帖时间:2023-06-22 21:22:21   |   回复数:0
游客组