BILL36
隐世仙人♂

[2023] [大陆] [剧情] [WEB-1080P] 恩爱两不疑[全30集][国语配音/中文字幕].The.Trust.S01.2023.1080p.WEB-DL.H264.AAC-BlackTV 14.01GB

-->

完整标题:恩爱两不疑[全30集][国语配音/中文字幕].The.Trust.S01.2023.1080p.WEB-DL.H264.AAC-BlackTV 14.01GB



◎标  题 恩爱两不疑
◎译  名 两不疑
◎年  代 2023
◎产  地 中国大陆
◎类  别 剧情 / 爱情 / 古装
◎语  言 汉语普通话
◎IMDb链接 https://www.imdb.com/title//
◎豆瓣链接 https://movie.douban.com/subject/35231017/
◎导  演 何振华 Zhenhua He
◎编  剧 石澳京
      朱书礼 Shuli Zhu
◎演  员 宋妍霏 Yanfei Song
      张昊唯 Haowei Zhang
      马栗 Li Ma
      曹峻祥 Junxiang Cao
      苗皓钧 Haizhong Miao
      翁虹 Yvonne Yung
      李俊辰 Junchen Li
      谭建昌 Jianchang Tan

◎简  介
    原本相看两生厌、互不信任不会武功的文治城主和舞刀弄枪的武将夫人因意外互换了身体,不得不接受现实的两人,在扮演对方身份的过程中,解开了误会,学会了爱与信任。结发为夫妻,恩爱两不疑。

##### MediaInfo ######
General
Complete name : The.Trust.S01E01.2023.1080p.WEB-DL.H264.AAC-BlackTV.mp4
Format : MPEG-4
Format profile : Base Media
Codec ID : isom (isom/iso2/avc1/mp41)
File size : 501 MiB
Duration : 45 min 41 s
Overall bit rate mode : Variable
Overall bit rate : 1 532 kb/s
Writing application : Lavf58.29.100

Video
ID : 1
Format : AVC
Format/Info : Advanced Video Codec
Format profile : High@L4
Format settings : CABAC / 3 Ref Frames
Format settings, CABAC : Yes
Format settings, Reference frames : 3 frames
Codec ID : avc1
Codec ID/Info : Advanced Video Coding
Duration : 45 min 41 s
Bit rate : 1 336 kb/s
Width : 1 920 pixels
Height : 800 pixels
Display aspect ratio : 2.40:1
Frame rate mode : Constant
Frame rate : 25.000 FPS
Color space : YUV
Chroma subsampling : 4:2:0
Bit depth : 8 bits
Scan type : Progressive
Bits/(Pixel*Frame) : 0.035
Stream size : 437 MiB (87%)
Color range : Limited
Color primaries : BT.709
Transfer characteristics : BT.709
Matrix coefficients : BT.709
Codec configuration box : avcC

Audio
ID : 2
Format : AAC LC
Format/Info : Advanced Audio Codec Low Complexity
Codec ID : mp4a-40-2
Duration : 45 min 41 s
Bit rate mode : Variable
Bit rate : 192 kb/s
Maximum bit rate : 207 kb/s
Channel(s) : 2 channels
Channel layout : L R
Sampling rate : 44.1 kHz
Frame rate : 43.066 FPS (1024 SPF)
Compression mode : Lossy
Stream size : 62.0 MiB (12%)
Default : Yes
Alternate group : 1

部分资源为软字幕,移动端推荐播放器:MxPlayer,nPlayer,infuse ,其他播放器请自行尝试。

部分资源为软字幕,电脑端推荐播放器:PotPlayer,完美解码,KMPLAYER,其他播放器请自行尝试。



1 个附件 售价 大小 下载 时间

The.Trust.S01.2023.1080p.WEB-DL.H264.AAC-BlackTV[BTBTT].torrent 0 金币 40.42K 273 次 12月前

#1楼
发帖时间:2023-06-22 21:22:33   |   回复数:0
游客组