BILL36
隐世仙人♂

[2023] [韩国] [科幻] [WEB-1080P] 放学后战争活动 第一季[全6集][中文字幕].Duty.After.School.S01.1080p.WEB-DL.AAC2.0.H.264-BlackTV 1

-->

完整标题:放学后战争活动 第一季[全6集][中文字幕].Duty.After.School.S01.1080p.WEB-DL.AAC2.0.H.264-BlackTV 18.63GB



◎标  题 放学后战争活动 第一季
◎译  名 课后战争活动 / Duty After School
◎片  名 방과 후 전쟁활동
◎年  代 2023
◎产  地 韩国
◎类  别 科幻 / 惊悚
◎语  言 韩语
◎IMDb评分 7.2/10 (619人评价)
◎IMDb链接 https://www.imdb.com/title/tt26672563/
◎豆瓣评分 5.5/10 (2839人评价)
◎豆瓣链接 https://movie.douban.com/subject/35516524/
◎导  演 成容日 Yong-il Seong
◎编  剧 李南圭 Nam-gyoo Lee
      河一权 Ha Il-kwon
◎演  员 申譞洙 Shin Hyun Soo
      李淳元 Soon-won Lee
      林世美 Se-Mi Im
      金基海 Kim Ki Hae
      崔玟熙 Choi Moon-Hee
      金秀谦 Su-gyeom Kim
      李妍 Lee Yeon
      权恩彬 Eun-bin Kwon
      文相敏 Mun Sang Min
      袁民奎 Woo Min-kyu
      金玟澈 Kim Min-chul
      金昭喜 Kim So-hee
      安道奎 Ahn Do Gyu
      安多恩 Ahn Da Eun
      黄世仁 Hwang Se In
      吴世恩 Oh Se Eun
      申惠智 Shin Hye Ji
      申明成 Shin Myung Sung
      洪萨宾 Hong Xa-bin
      池敏赫 Min-hyeok Ji
      吕珠河 Joo-ha Yeo
      尹仲彬 Jong-bin Yoon
      卢圣恩 Noh Seong Eun
      金景兰 Kim Jung-lan
      卢宗贤 No Jong-hyun
      申秀贤 Su-hyun Shin
      张铉诚 Hyeong-seong Jang
      金艺媛 Ye-won Kim
      沈昭英 So-yeong Sim
      音文硕 Moon-seok Eum
      金元海 Won-hae Kim
      安昌焕 Chang-hwan An
      李姃玟 Jung-min Lee
      刘成柱 Sung-joo Yoo
      朴淨涓 Jung Yeon Park
      张赫镇 Jang Hyeok-jin
      尹多景 Da-kyung Yoon
      成志娄 Ji-ru Sung
      申宰辉 Jae-whi Shin
      柳俊 Jun Yoo
      刘智秀 Ji-soo Yoo
      禹贤珠 Woo Hyun Joo
      徐智英 Seo Ji Young

◎简  介
    某一天世上突然出现了未知的宝蓝色球状生命体,给人类带来了伤害,中大型的球体可以伤人,小型球体会攻击人,在危机事态下,全国的高中生都接受军事训练,被编制成军人预备军,开始在全国各个地区拿枪战斗,预备军人的任务是防御和摧毁部署在前线向市中心移动的小型球体。   主要是一部讲述高中生变成军人开始拿枪战斗的故事。

##### MediaInfo ######
General
Unique ID : 161490393953558751790601103106349747444 (0x797DEB25BD3E7C26C088B976A3544CF4)
Complete name : Duty.After.School.S01E01.1080p.WEB-DL.AAC2.0.H.264-BlackTV.mkv
Format : Matroska
Format version : Version 4
File size : 1.94 GiB
Duration : 1 h 13 min
Overall bit rate : 3 774 kb/s
Encoded date : UTC 2023-04-01 10:03:48
Writing application : mkvmerge v69.0.0 ('Day And Age') 64-bit
Writing library : libebml v1.4.2 + libmatroska v1.6.4

Video
ID : 1
Format : AVC
Format/Info : Advanced Video Codec
Format profile : [email protected]
Format settings : CABAC / 1 Ref Frames
Format settings, CABAC : Yes
Format settings, Reference frames : 1 frame
Format settings, GOP : M=1, N=60
Codec ID : V_MPEG4/ISO/AVC
Duration : 1 h 13 min
Bit rate mode : Constant
Bit rate : 3 646 kb/s
Nominal bit rate : 4 000 kb/s
Width : 1 920 pixels
Height : 1 080 pixels
Display aspect ratio : 16:9
Frame rate mode : Constant
Frame rate : 29.970 (30000/1001) FPS
Color space : YUV
Chroma subsampling : 4:2:0
Bit depth : 8 bits
Scan type : Progressive
Bits/(Pixel*Frame) : 0.059
Stream size : 1.88 GiB (97%)
Default : Yes
Forced : No

Audio
ID : 2
Format : AAC LC
Format/Info : Advanced Audio Codec Low Complexity
Codec ID : A_AAC-2
Duration : 1 h 13 min
Bit rate : 125 kb/s
Channel(s) : 2 channels
Channel layout : L R
Sampling rate : 48.0 kHz
Frame rate : 46.875 FPS (1024 SPF)
Compression mode : Lossy
Stream size : 66.1 MiB (3%)
Language : Korean
Default : No
Forced : No

Text #1
ID : 3
Format : UTF-8
Codec ID : S_TEXT/UTF8
Codec ID/Info : UTF-8 Plain Text
Duration : 1 h 11 min
Bit rate : 59 b/s
Count of elements : 1288
Stream size : 31.1 KiB (0%)
Title : Simplified
Language : Chinese
Default : Yes
Forced : No

Text #2
ID : 4
Format : UTF-8
Codec ID : S_TEXT/UTF8
Codec ID/Info : UTF-8 Plain Text
Duration : 1 h 11 min
Bit rate : 59 b/s
Count of elements : 1288
Stream size : 31.1 KiB (0%)
Title : Traditional
Language : Chinese
Default : No
Forced : No

点击图片可查看大图

软字幕无法在截图上展现,HDR版本/杜比视界版本截图会出现颜色异常,请使用支持的设备播放!

部分资源为软字幕,移动端推荐播放器:MxPlayer,nPlayer,infuse ,其他播放器请自行尝试。

部分资源为软字幕,电脑端推荐播放器:PotPlayer,完美解码,KMPLAYER,其他播放器请自行尝试。



1 个附件 售价 大小 下载 时间

Duty.After.School.S01.1080p.WEB-DL.AAC2.0.H.264-BlackTV[BTBTT].torrent 0 金币 50.36K 973 次 12月前

#1楼
发帖时间:2023-06-22 21:22:58   |   回复数:0
游客组