BILL36
隐世仙人♂

[2021] [美国] [剧情] [WEB-1080P] 女佣[全10集][简繁英字幕].Maid.S01.2021.NF.WEB-DL.1080p.HEVC.DDP-Xiaomi 23.55GB

-->

完整标题:女佣[全10集][简繁英字幕].Maid.S01.2021.NF.WEB-DL.1080p.HEVC.DDP-Xiaomi 23.55GB



◎标  题 女佣
◎译  名 女佣浮生录
◎片  名 Maid
◎年  代 2021
◎产  地 美国
◎类  别 剧情 / 喜剧
◎语  言 英语
◎IMDb评分 8.4/10 (87058人评价)
◎IMDb链接 https://www.imdb.com/title/tt11337908/
◎豆瓣评分 8.5/10 (13074人评价)
◎豆瓣链接 https://movie.douban.com/subject/34925417/
◎导  演 约翰·威尔斯 John Wells
      恩辛哈·斯图尔特 Nzingha Stewart
      海伦·谢费 Helen Shaver
      莉拉·内格鲍尔 Lila Neugebauer
      奎燕·陈 Quyen Tran
◎编  剧 莫莉·史密斯·梅茨勒 Molly Smith Metzler
      马库斯·加德利 Marcus Gardley
      丽贝卡·布鲁斯特 Rebecca Brunstetter
      科林·麦肯纳 Colin McKenna
      米歇尔·丹尼斯·杰克逊 Michelle Denise Jackson
      斯蒂芬妮·兰德 Stephanie Land
◎演  员 玛格丽特·库里 Margaret Qualley
      尼克·罗宾森 Nick Robinson
      莱拉·内瓦·惠特 Rylea Nevaeh Whittet
      安迪·麦克道威尔 Andie MacDowell
      阿尼卡·诺尼·罗斯 Anika Noni Rose
      特雷西·维拉尔 Tracy Vilar
      比利·伯克 Billy Burke
      泽维尔·德古斯曼 Xavier de Guzman
      BJ·哈里森 BJ Harrison
      托比·莱文斯 Toby Levins
      克里斯蒂·柏克 Christie Burke
      艾琳·卡普拉克 Erin Karpluk
      艾米·卡里诺 Aimee Carrero
      莫赞·玛诺 Mozhan Marnò
      杰西卡·斯汀 Jessica Steen
      斯蒂夫·巴西奇 Steve Bacic
      吉莲·芭伯 Gillian Barber
      亚历桑德罗·朱利安尼 Alessandro Juliani
      西奥多·佩尔兰 Théodore Pellerin
      珍妮弗·姬琛 Jennifer Kitchen
      莉亚·弗兰克兰 Lia Frankland
      格洛丽亚·加拉尤亚 Gloria Garayua
      贝利·斯科德里 Bailey Skodje
      萨钦·萨赫勒 Sachin Sahel
      贝克汉姆·斯科德里 Beckham Skodje
      丹尼尔·巴孔 Daniel Bacon
      拉腊·萨迪克 Laara Sadiq
      艾丽森·阿拉亚 Alison Araya
      李利强 Leo Li Chiang
      珥杜 Nhi Do
      米拉·琼斯 Mila Jones
      帕蒂·基姆 Patti Kim
      杰西卡·马特 Jessica Matten
      吉尔·莫里森 Jill Morrison
      艾琳·佩德 Eileen Pedde
      杰德·瑞斯 Jed Rees
      丹尼斯·科贝特 Denis Corbett
      约兰达·科贝特 Yolanda Corbett
      蒂姆·佩雷斯 Tim Perez
      布伦达·克里奇洛 Brenda Crichlow
      查梅因·威尔逊 Charmaine Wilson
      雷蒙德·阿布莱克 Raymond Ablack

◎简  介
    《女佣浮生录》改编自斯蒂芬妮·兰德的《纽约时报》畅销回忆录《Maid: Hard Work, Low Pay, and a Mother’s Will to Survive》,以单亲妈妈亚历克斯为主角展开叙述,她靠当女佣来艰难地维持生计,同时努力摆脱受虐关系和流离失所的状态,以便为女儿麦蒂创造更好的生活。该剧集通过这名绝望但坚定的女性感性而幽默的视角,如实展现了一名母亲的韧性。

##### MediaInfo ######
General
Unique ID : 154587783015604997515176552684163759028 (0x744C862721FEAB6ADF94B0020F04FBB4)
Complete name : Maid.S01E01.2021.NF.WEB-DL.1080p.HEVC.DDP-Xiaomi.mkv
Format : Matroska
Format version : Version 4
File size : 2.17 GiB
Duration : 50 min 27 s
Overall bit rate : 6 154 kb/s
Encoded date : UTC 2021-10-12 14:12:17
Writing application : mkvmerge v51.0.0 ('I Wish') 64-bit
Writing library : libebml v1.4.0 + libmatroska v1.6.2

Video
ID : 1
Format : HEVC
Format/Info : High Efficiency Video Coding
Format profile : Main 10@L4@Main
Codec ID : V_MPEGH/ISO/HEVC
Duration : 50 min 27 s
Bit rate : 5 509 kb/s
Width : 1 920 pixels
Height : 1 080 pixels
Display aspect ratio : 16:9
Frame rate mode : Constant
Frame rate : 23.976 (24000/1001) FPS
Color space : YUV
Chroma subsampling : 4:2:0
Bit depth : 10 bits
Bits/(Pixel*Frame) : 0.111
Stream size : 1.94 GiB (90%)
Default : Yes
Forced : No
Color range : Limited
Color primaries : BT.709
Transfer characteristics : BT.709
Matrix coefficients : BT.709

Audio
ID : 2
Format : E-AC-3
Format/Info : Enhanced AC-3
Commercial name : Dolby Digital Plus
Codec ID : A_EAC3
Duration : 50 min 27 s
Bit rate mode : Constant
Bit rate : 640 kb/s
Channel(s) : 6 channels
Channel layout : L R C LFE Ls Rs
Sampling rate : 48.0 kHz
Frame rate : 31.250 FPS (1536 SPF)
Compression mode : Lossy
Stream size : 231 MiB (10%)
Title : English
Language : English
Service kind : Complete Main
Default : Yes
Forced : No

Text #1
ID : 3
Format : UTF-8
Codec ID : S_TEXT/UTF8
Codec ID/Info : UTF-8 Plain Text
Duration : 47 min 0 s
Bit rate : 53 b/s
Count of elements : 551
Stream size : 18.4 KiB (0%)
Title : English
Language : English
Default : Yes
Forced : No

Text #2
ID : 4
Format : UTF-8
Codec ID : S_TEXT/UTF8
Codec ID/Info : UTF-8 Plain Text
Duration : 48 min 28 s
Bit rate : 84 b/s
Count of elements : 524
Stream size : 29.9 KiB (0%)
Title : ????
Language : Arabic
Default : No
Forced : No

Text #3
ID : 5
Format : UTF-8
Codec ID : S_TEXT/UTF8
Codec ID/Info : UTF-8 Plain Text
Duration : 48 min 28 s
Bit rate : 51 b/s
Count of elements : 524
Stream size : 18.4 KiB (0%)
Title : 中文(简体)
Language : Chinese
Default : No
Forced : No

Text #4
ID : 6
Format : UTF-8
Codec ID : S_TEXT/UTF8
Codec ID/Info : UTF-8 Plain Text
Duration : 48 min 28 s
Bit rate : 49 b/s
Count of elements : 524
Stream size : 17.6 KiB (0%)
Title : 中文(繁體)
Language : Chinese
Default : No
Forced : No

Text #5
ID : 7
Format : UTF-8
Codec ID : S_TEXT/UTF8
Codec ID/Info : UTF-8 Plain Text
Duration : 48 min 28 s
Bit rate : 41 b/s
Count of elements : 506
Stream size : 14.8 KiB (0%)
Title : hrvatski
Language : Croatian
Default : No
Forced : No

Text #6
ID : 8
Format : UTF-8
Codec ID : S_TEXT/UTF8
Codec ID/Info : UTF-8 Plain Text
Duration : 48 min 28 s
Bit rate : 44 b/s
Count of elements : 506
Stream size : 15.9 KiB (0%)
Title : ?esky
Language : Czech
Default : No
Forced : No

Text #7
ID : 9
Format : UTF-8
Codec ID : S_TEXT/UTF8
Codec ID/Info : UTF-8 Plain Text
Duration : 48 min 28 s
Bit rate : 40 b/s
Count of elements : 501
Stream size : 14.4 KiB (0%)
Title : dansk
Language : Danish
Default : No
Forced : No

Text #8
ID : 10
Format : UTF-8
Codec ID : S_TEXT/UTF8
Codec ID/Info : UTF-8 Plain Text
Duration : 48 min 28 s
Bit rate : 39 b/s
Count of elements : 449
Stream size : 14.1 KiB (0%)
Title : Nederlands
Language : Dutch
Default : No
Forced : No

Text #9
ID : 11
Format : UTF-8
Codec ID : S_TEXT/UTF8
Codec ID/Info : UTF-8 Plain Text
Duration : 48 min 28 s
Bit rate : 41 b/s
Count of elements : 411
Stream size : 14.6 KiB (0%)
Title : Vlaams
Language : Finnish
Default : No
Forced : No

Text #10
ID : 12
Format : UTF-8
Codec ID : S_TEXT/UTF8
Codec ID/Info : UTF-8 Plain Text
Duration : 48 min 28 s
Bit rate : 45 b/s
Count of elements : 490
Stream size : 16.1 KiB (0%)
Title : Fran?ais
Language : French
Default : No
Forced : No

Text #11
ID : 13
Format : UTF-8
Codec ID : S_TEXT/UTF8
Codec ID/Info : UTF-8 Plain Text
Duration : 48 min 28 s
Bit rate : 43 b/s
Count of elements : 503
Stream size : 15.5 KiB (0%)
Title : Deutsch
Language : German
Default : No
Forced : No

Text #12
ID : 14
Format : UTF-8
Codec ID : S_TEXT/UTF8
Codec ID/Info : UTF-8 Plain Text
Duration : 48 min 28 s
Bit rate : 77 b/s
Count of elements : 503
Stream size : 27.4 KiB (0%)
Title : ελληνικ?
Language : Greek
Default : No
Forced : No

Text #13
ID : 15
Format : UTF-8
Codec ID : S_TEXT/UTF8
Codec ID/Info : UTF-8 Plain Text
Duration : 48 min 28 s
Bit rate : 78 b/s
Count of elements : 509
Stream size : 27.9 KiB (0%)
Title : ????
Language : Hebrew
Default : No
Forced : No

Text #14
ID : 16
Format : UTF-8
Codec ID : S_TEXT/UTF8
Codec ID/Info : UTF-8 Plain Text
Duration : 48 min 28 s
Bit rate : 44 b/s
Count of elements : 523
Stream size : 15.7 KiB (0%)
Title : Magyar
Language : Hungarian
Default : No
Forced : No

Text #15
ID : 17
Format : UTF-8
Codec ID : S_TEXT/UTF8
Codec ID/Info : UTF-8 Plain Text
Duration : 48 min 28 s
Bit rate : 43 b/s
Count of elements : 522
Stream size : 15.3 KiB (0%)
Title : Indonesia
Language : Indonesian
Default : No
Forced : No

Text #16
ID : 18
Format : UTF-8
Codec ID : S_TEXT/UTF8
Codec ID/Info : UTF-8 Plain Text
Duration : 48 min 28 s
Bit rate : 45 b/s
Count of elements : 506
Stream size : 16.3 KiB (0%)
Title : Italiano
Language : Italian
Default : No
Forced : No

Text #17
ID : 19
Format : UTF-8
Codec ID : S_TEXT/UTF8
Codec ID/Info : UTF-8 Plain Text
Duration : 48 min 19 s
Bit rate : 46 b/s
Count of elements : 557
Stream size : 16.6 KiB (0%)
Title : 日本語
Language : Japanese
Default : No
Forced : No

Text #18
ID : 20
Format : UTF-8
Codec ID : S_TEXT/UTF8
Codec ID/Info : UTF-8 Plain Text
Duration : 48 min 28 s
Bit rate : 55 b/s
Count of elements : 526
Stream size : 19.7 KiB (0%)
Title : ???
Language : Korean
Default : No
Forced : No

Text #19
ID : 21
Format : UTF-8
Codec ID : S_TEXT/UTF8
Codec ID/Info : UTF-8 Plain Text
Duration : 48 min 28 s
Bit rate : 46 b/s
Count of elements : 486
Stream size : 16.5 KiB (0%)
Title : ???? ?????
Language : Malay
Default : No
Forced : No

Text #20
ID : 22
Format : UTF-8
Codec ID : S_TEXT/UTF8
Codec ID/Info : UTF-8 Plain Text
Duration : 48 min 28 s
Bit rate : 37 b/s
Count of elements : 385
Stream size : 13.2 KiB (0%)
Title : norsk
Language : Norwegian Bokmal
Default : No
Forced : No

Text #21
ID : 23
Format : UTF-8
Codec ID : S_TEXT/UTF8
Codec ID/Info : UTF-8 Plain Text
Duration : 48 min 28 s
Bit rate : 44 b/s
Count of elements : 507
Stream size : 15.9 KiB (0%)
Title : J?zyk polski
Language : Polish
Default : No
Forced : No

Text #22
ID : 24
Format : UTF-8
Codec ID : S_TEXT/UTF8
Codec ID/Info : UTF-8 Plain Text
Duration : 48 min 28 s
Bit rate : 45 b/s
Count of elements : 492
Stream size : 16.0 KiB (0%)
Title : Português
Language : Portuguese
Default : No
Forced : No

Text #23
ID : 25
Format : UTF-8
Codec ID : S_TEXT/UTF8
Codec ID/Info : UTF-8 Plain Text
Duration : 48 min 28 s
Bit rate : 44 b/s
Count of elements : 504
Stream size : 15.8 KiB (0%)
Title : Português
Language : Portuguese
Default : No
Forced : No

Text #24
ID : 26
Format : UTF-8
Codec ID : S_TEXT/UTF8
Codec ID/Info : UTF-8 Plain Text
Duration : 48 min 28 s
Bit rate : 52 b/s
Count of elements : 507
Stream size : 18.7 KiB (0%)
Title : Limba roman?
Language : Romanian
Default : No
Forced : No

Text #25
ID : 27
Format : UTF-8
Codec ID : S_TEXT/UTF8
Codec ID/Info : UTF-8 Plain Text
Duration : 48 min 28 s
Bit rate : 68 b/s
Count of elements : 524
Stream size : 24.3 KiB (0%)
Title : русский язык
Language : Russian
Default : No
Forced : No

Text #26
ID : 28
Format : UTF-8
Codec ID : S_TEXT/UTF8
Codec ID/Info : UTF-8 Plain Text
Duration : 48 min 28 s
Bit rate : 45 b/s
Count of elements : 508
Stream size : 16.1 KiB (0%)
Title : Espa?ol?(Latinoamérica)
Language : Spanish
Default : No
Forced : No

Text #27
ID : 29
Format : UTF-8
Codec ID : S_TEXT/UTF8
Codec ID/Info : UTF-8 Plain Text
Duration : 48 min 28 s
Bit rate : 46 b/s
Count of elements : 521
Stream size : 16.7 KiB (0%)
Title : Espa?ol?(Espa?a)
Language : Spanish
Default : No
Forced : No

Text #28
ID : 30
Format : UTF-8
Codec ID : S_TEXT/UTF8
Codec ID/Info : UTF-8 Plain Text
Duration : 48 min 28 s
Bit rate : 43 b/s
Count of elements : 499
Stream size : 15.5 KiB (0%)
Title : svenska
Language : Swedish
Default : No
Forced : No

Text #29
ID : 31
Format : UTF-8
Codec ID : S_TEXT/UTF8
Codec ID/Info : UTF-8 Plain Text
Duration : 48 min 28 s
Bit rate : 130 b/s
Count of elements : 525
Stream size : 46.4 KiB (0%)
Title : ???
Language : Thai
Default : No
Forced : No

Text #30
ID : 32
Format : UTF-8
Codec ID : S_TEXT/UTF8
Codec ID/Info : UTF-8 Plain Text
Duration : 48 min 28 s
Bit rate : 44 b/s
Count of elements : 507
Stream size : 15.7 KiB (0%)
Title : Türk
Language : Turkish
Default : No
Forced : No

Text #31
ID : 33
Format : UTF-8
Codec ID : S_TEXT/UTF8
Codec ID/Info : UTF-8 Plain Text
Duration : 48 min 28 s
Bit rate : 70 b/s
Count of elements : 524
Stream size : 25.1 KiB (0%)
Title : Укра?нська
Language : Ukrainian
Default : No
Forced : No

Text #32
ID : 34
Format : UTF-8
Codec ID : S_TEXT/UTF8
Codec ID/Info : UTF-8 Plain Text
Duration : 48 min 28 s
Bit rate : 68 b/s
Count of elements : 510
Stream size : 24.5 KiB (0%)
Title : Ti?ng Vi?t
Language : Vietnamese
Default : No
Forced : No

点击图片可查看大图

软字幕无法在截图上展现,HDR版本/杜比视界版本截图会出现颜色异常,请使用支持的设备播放!

部分资源为软字幕,移动端推荐播放器:MxPlayer,nPlayer,infuse ,其他播放器请自行尝试。

部分资源为软字幕,电脑端推荐播放器:PotPlayer,完美解码,KMPLAYER,其他播放器请自行尝试。



1 个附件 售价 大小 下载 时间

Maid.S01.2021.NF.WEB-DL.1080p.HEVC.DDP-Xiaomi[BTBTT].torrent 0 金币 62.52K 189 次 12月前

#1楼
发帖时间:2023-06-22 21:23:26   |   回复数:0
游客组