BILL36
隐世仙人♂

[2023] [大陆] [剧情] [WEB-1080P] 全资进组[全24集][国语配音/中文字幕].Quan.Zi.Jin.Zu.2023.S01.1080p.WEB-DL.H264.AAC-Huawei 4.81G

-->

完整标题:全资进组[全24集][国语配音/中文字幕].Quan.Zi.Jin.Zu.2023.S01.1080p.WEB-DL.H264.AAC-Huawei 4.81GB



◎标  题 全资进组
◎年  代 2023
◎产  地 中国大陆
◎类  别 剧情 / 喜剧
◎语  言 汉语普通话
◎IMDb链接 https://www.imdb.com/title//
◎豆瓣链接 https://movie.douban.com/subject/36151372/
◎导  演 巴晨旭 Chenxu Ba
◎编  剧 夏梦莹 Mengying Xia
      鹿呦呦 Lu You You
      李金彦 Li Jin Yan
◎演  员 陈腾跃 Tengyue Chen
      屈梦汝 Mengru Qu
      邓诗韵 Shiyun Deng
      蔡卓宜 Joey Chua
      杨志雯 Zhiwen Yang
      陈婧旸 Jingyang Chen
      罗予彤 Yutong Luo
      邹思扬 Siyang Zou
      梦汐 Meng Xi
      高维蔓 Weiman Gao
      关博 Bo Guan
      权沛伦 Peilun Quan
      仟承 Qian Cheng
      许焱磊 Xu Yan Lei
      刘星麓 Liu Xing Lu
      慕琳哪 Mu Lin Na
      李丰蔚 Li Feng Wei

◎简  介
    《全资进组》讲述了一个天马行空的资方爸爸全资进组,为了完成自己各种古装大男主的梦想疯狂改剧本,导致剧情直线横跳。卑微倔强的编剧无力反抗,顶着越来越秃的头发使出浑身解数拼命填坑,各种反套路火力全开。风格彻底失控,人设反复崩塌。从宅斗到悬疑,从悬疑到仙侠,从仙侠到武林,从武林到宫廷,从宫廷到穿越……打破次元壁,各种国产古装剧类型欢聚一堂,题材开会。在他们的努力下:仙侠剧将首次从地理学大陆板块硬核打开;冰块脸男主的元神真的是一块万年玄冰;勾心斗角的宫廷剧变得异常融洽姐妹情深;锦衣卫办案悬疑感满满找了全剧也没找到凶手;白面书生赶考路上被富家千金风险投资意外称霸武林;精分男狐正邪同体切换女捉妖师难敌魅惑因爱生恨;甚至男主的朋友来探班带的爱犬为了加戏出镜也直接成了精,还给加了感情线……但在所有人都觉得这是一场闹剧的背后,你会发现他是一位演员对梦想歇斯底里的追求和救赎。

##### MediaInfo ######
General
Complete name : Quan.Zi.Jin.Zu.2023.S01E01.1080p.WEB-DL.H264.AAC-Huawei.mp4
Format : MPEG-4
Format profile : Base Media
Codec ID : isom (isom/iso2/avc1/mp41)
File size : 201 MiB
Duration : 11 min 33 s
Overall bit rate mode : Variable
Overall bit rate : 2 436 kb/s
Recorded date : 2023-04-28T12:08:23.6956724+08:00
Writing application : Lavf59.34.102

Video
ID : 1
Format : AVC
Format/Info : Advanced Video Codec
Format profile : High@L4
Format settings : CABAC / 3 Ref Frames
Format settings, CABAC : Yes
Format settings, Reference frames : 3 frames
Codec ID : avc1
Codec ID/Info : Advanced Video Coding
Duration : 11 min 33 s
Bit rate : 2 240 kb/s
Width : 1 920 pixels
Height : 816 pixels
Display aspect ratio : 2.35:1
Frame rate mode : Constant
Frame rate : 25.000 FPS
Color space : YUV
Chroma subsampling : 4:2:0
Bit depth : 8 bits
Scan type : Progressive
Bits/(Pixel*Frame) : 0.057
Stream size : 185 MiB (92%)
Color range : Limited
Color primaries : BT.709
Transfer characteristics : BT.709
Matrix coefficients : BT.709
Codec configuration box : avcC

Audio
ID : 2
Format : AAC LC
Format/Info : Advanced Audio Codec Low Complexity
Codec ID : mp4a-40-2
Duration : 11 min 33 s
Bit rate mode : Variable
Bit rate : 192 kb/s
Maximum bit rate : 196 kb/s / 196 kb/s
Channel(s) : 2 channels
Channel layout : L R
Sampling rate : 44.1 kHz
Frame rate : 43.066 FPS (1024 SPF)
Compression mode : Lossy
Stream size : 15.7 MiB (8%)
Default : Yes
Alternate group : 1

点击图片可查看大图

软字幕无法在截图上展现,HDR版本/杜比视界版本截图会出现颜色异常,请使用支持的设备播放!

部分资源为软字幕,移动端推荐播放器:MxPlayer,nPlayer,infuse ,其他播放器请自行尝试。

部分资源为软字幕,电脑端推荐播放器:PotPlayer,完美解码,KMPLAYER,其他播放器请自行尝试。



2 个附件 售价 大小 下载 时间

Quan.Zi.Jin.Zu.2023.S01.1080p.WEB-DL.H264.AAC-Huawei[BTBTT].torrent 0 金币 16.99K 455 次 11月前

Quan.Zi.Jin.Zu.2023.S01.1080p.WEB-DL.H264.AAC-Huawei[BTBTT].torrent 0 金币 16.99K 112 次 11月前

#1楼
发帖时间:2023-06-22 21:24:54   |   回复数:0
游客组