BILL36
隐世仙人♂

[2022] [大陆] [喜剧] [WEB-1080P] 卿卿日常[全40集][国语音轨/简繁字幕].New.Life.Begins.2022.NF.WEB-DL.1080p.x264.DDP-Xiaomi 67.48

-->

完整标题:卿卿日常[全40集][国语音轨/简繁字幕].New.Life.Begins.2022.NF.WEB-DL.1080p.x264.DDP-Xiaomi 67.48GB



◎标  题 卿卿日常
◎译  名 清穿日常 / 青川日常 / 新川日常 / 川内相亲(港) / New Life Begins
◎年  代 2022
◎产  地 中国大陆
◎类  别 喜剧 / 爱情 / 古装
◎语  言 汉语普通话
◎IMDb评分 7.7/10 (111人评价)
◎IMDb链接 https://www.imdb.com/title/tt23473086/
◎豆瓣评分 7.1/10 (217533人评价)
◎豆瓣链接 https://movie.douban.com/subject/35465009/
◎导  演 赵启辰 Qichen Zhao
◎编  剧 纪桑柔 Sangrou Ji
      丁璐 Lu Ding
      郑卓群
      多木木多
      余言 Yan Yu
      刘丹 Dan Liu
◎演  员 白敬亭 Jingting Bai
      田曦薇 Xiwei Tian
      陈小纭 Xiaoyun Chen
      刘冠麟 Guanlin Liu
      刘令姿 Lingzi Liu
      张晓晨 Xiaochen Zhang
      昌隆 Long Chang
      刘美含 Meihan Liu
      范帅琦 Shuaiqi Fan
      刘萌萌 Mengmeng Liu
      魏子昕 Zixin Wei
      陈紫函 Zihan Chen
      赵柯 Karina Zhao
      邱心志 Hsin-chih Chiu
      王伊瑶 Yiyao Wang
      姬晓飞 Xiaofei Ji
      汤梦佳 Melody Tang
      高曙光 Shuguang Gao
      喻恩泰 Entai Yu
      胡可 Ke Hu
      胡丹丹 Dandan Hu
      侯长荣 Changrong Hou
      王之一 Zhiyi Wang
      王漪淼 Yimiao Wang
      姚一奇 Yiqi Yao
      孙爽 Shuang Sun
      宋涵宇 Hanyu Song
      李紫瑞 Zirui Li
      许涛 Tao Xu
      马昊 Hao Ma
      付磊 Lei Fu
      岳旸 Yang Yue
      李彧 Yu Li
      姚冠宇 Austin
      魏劲松 Jinsong Wei
      俞庆 Qing Yu
      张志宏 Zhihong Zhang
      胡小庭 Xiaoting Hu
      依灵 Yi Ling
      张庭菲 Tingfei Zhang
      张瑞珈 Ruijia Zhang
      李玮珽 Weiting Li
      耿黎明 Liming Geng
      张紫淋 Zilin Zhang
      李嘉欣 Jiaxin Li
      许荔莎 Lisha Xu
      杜孙雨妤 Sunyuyu Du
      陈敬德 Jingde Chen
      牛志强 Zhiqiang Niu
      柴隽哲 Chai Jun Zhe
      茹天 Ru Tian
      房小墨 Xiaomo Fang
      刘季 Ji Liu
      蹇代莉 Daili Jian
      周子琪 Ziqi Zhou
      谭琍敏 Limin Tan
      马卫军 Weijun Ma
      郁晓冬 Xiaodong Yu
      宁玥 Yue Ning
      朱海军 Haijun Zhu
      周中和 Zhonghe Zhou
      李甦
      白晶晶 Jingjing Bai
      闫金凤 Jinfeng Yan
      刘苏 Su Liu
      范薇 Wei Fan
      徐崴罗 Weiluo Xu
      侯桐江 Tongjiang Hou
      高旭阳 Xuyang Gao
      王笑龙 Xiaolong Wang
      杨智迪 Zhidi Yang
      井璐 Lu Jing
      施铄奕
      王子菲 Zifei Wang
      张馨予 Xinyu Zhang
      马程 Cheng Ma
      任铭松 Mingsong Ren
      刘芊含 Qianhan Liu
      李龙滨 Longbin Li
      李璐 Lu Li
      赵铭洲 Mingzhou Zhao

◎简  介
    因为一场联姻擢选,来自天南海北的女孩们齐聚新川。韬光养晦的新川六少主尹峥(白敬亭 饰),与只想努力落选、在老家安逸度日的李薇(田曦薇 饰)意外结缘,共同开启了一段状况百出却又相映成趣的新生活。随着尹峥开府、上朝,二人逐渐口味相投、心意相通,携手共度三餐四季,并与其他性格命运各异的兄弟姐妹们相伴成长,一起书写着新川大家庭的温暖日常。   剧集改编自多木木多小说《清穿日常》。

##### MediaInfo ######
General
Unique ID : 226313329088254554441780914517671293214 (0xAA425C9A5EC956AA19AF0D68A942311E)
Complete name : New.Life.Begins.E01.2022.NF.WEB-DL.1080p.x264.DDP-Xiaomi.mkv
Format : Matroska
Format version : Version 4
File size : 1.66 GiB
Duration : 46 min 24 s
Overall bit rate mode : Variable
Overall bit rate : 5 122 kb/s
Encoded date : UTC 2023-04-28 06:30:21
Writing application : mkvmerge v74.0.0 ('You Oughta Know') 64-bit
Writing library : libebml v1.4.4 + libmatroska v1.7.1

Video
ID : 1
Format : AVC
Format/Info : Advanced Video Codec
Format profile : Main@L4
Format settings : CABAC / 3 Ref Frames
Format settings, CABAC : Yes
Format settings, Reference frames : 3 frames
Codec ID : V_MPEG4/ISO/AVC
Duration : 46 min 24 s
Bit rate mode : Variable
Bit rate : 5 000 kb/s
Maximum bit rate : 7 500 kb/s
Width : 1 920 pixels
Height : 1 080 pixels
Display aspect ratio : 16:9
Frame rate mode : Constant
Frame rate : 25.000 FPS
Color space : YUV
Chroma subsampling : 4:2:0
Bit depth : 8 bits
Scan type : Progressive
Bits/(Pixel*Frame) : 0.096
Stream size : 1.62 GiB (97%)
Writing library : x264 core 148 r2727 7d026e8
Encoding settings : cabac=1 / ref=3 / deblock=1:0:0 / analyse=0x1:0x111 / me=umh / subme=10 / psy=1 / psy_rd=1.00:0.00 / mixed_ref=1 / me_range=24 / chroma_me=1 / trellis=2 / 8x8dct=0 / cqm=0 / deadzone=21,11 / fast_pskip=1 / chroma_qp_offset=-2 / threads=6 / lookahead_threads=1 / sliced_threads=0 / nr=0 / decimate=1 / interlaced=0 / bluray_compat=0 / stitchable=1 / constrained_intra=0 / bframes=2 / b_pyramid=0 / b_adapt=2 / b_bias=0 / direct=3 / weightb=1 / open_gop=0 / weightp=2 / keyint=250 / keyint_min=126 / scenecut=0 / intra_refresh=0 / rc_lookahead=50 / rc=2pass / mbtree=1 / bitrate=5000 / ratetol=1.0 / qcomp=0.50 / qpmin=6 / qpmax=51 / qpstep=4 / cplxblur=20.0 / qblur=0.5 / vbv_maxrate=7500 / vbv_bufsize=10000 / nal_hrd=vbr / filler=0 / ip_ratio=1.40 / aq=1:1.00
Default : Yes
Forced : No

Audio
ID : 2
Format : E-AC-3
Format/Info : Enhanced AC-3
Commercial name : Dolby Digital Plus
Codec ID : A_EAC3
Duration : 46 min 24 s
Bit rate mode : Constant
Bit rate : 128 kb/s
Channel(s) : 2 channels
Channel layout : L R
Sampling rate : 48.0 kHz
Frame rate : 31.250 FPS (1536 SPF)
Compression mode : Lossy
Stream size : 42.5 MiB (2%)
Title : Mandarin
Language : Chinese
Service kind : Complete Main
Default : Yes
Forced : No

Text #1
ID : 3
Format : UTF-8
Codec ID : S_TEXT/UTF8
Codec ID/Info : UTF-8 Plain Text
Duration : 41 min 43 s
Bit rate : 61 b/s
Count of elements : 780
Stream size : 18.9 KiB (0%)
Title : Simplified
Language : Chinese
Default : No
Forced : No

Text #2
ID : 4
Format : UTF-8
Codec ID : S_TEXT/UTF8
Codec ID/Info : UTF-8 Plain Text
Duration : 41 min 43 s
Bit rate : 61 b/s
Count of elements : 780
Stream size : 18.9 KiB (0%)
Title : Traditional
Language : Chinese
Default : No
Forced : No

Menu
00:00:00.000 : en:Part 01
00:01:37.500 : en:Part 02
00:43:33.450 : en:Credits

点击图片可查看大图

软字幕无法在截图上展现,HDR版本/杜比视界版本截图会出现颜色异常,请使用支持的设备播放!

部分资源为软字幕,移动端推荐播放器:MxPlayer,nPlayer,infuse ,其他播放器请自行尝试。

部分资源为软字幕,电脑端推荐播放器:PotPlayer,完美解码,KMPLAYER,其他播放器请自行尝试。



1 个附件 售价 大小 下载 时间

New.Life.Begins.2022.NF.WEB-DL.1080p.x264.DDP-Xiaomi[BTBTT].torrent 0 金币 175.15K 4824 次 12月前

#1楼
发帖时间:2023-06-22 21:25:01   |   回复数:0
游客组