BILL36
隐世仙人♂

[2021] [美国] [剧情] [WEB-1080P] 外滩探秘 第二季[杜比视界版本][全10集][简繁英字幕].Outer.Banks.S02.2021.NF.WEB-DL.1080p.HEVC.DV.DDP-X

-->

完整标题:外滩探秘 第二季[杜比视界版本][全10集][简繁英字幕].Outer.Banks.S02.2021.NF.WEB-DL.1080p.HEVC.DV.DDP-Xiaomi 21.56GB



◎标  题 外滩探秘 第二季
◎译  名 外滩群岛
◎片  名 Outer Banks Season 2
◎年  代 2021
◎产  地 美国
◎类  别 剧情 / 动作 / 爱情 / 悬疑 / 惊悚 / 犯罪
◎语  言 英语
◎IMDb评分 7.9/10 (1338人评价)
◎IMDb链接 https://www.imdb.com/title/tt12766134/
◎豆瓣评分 7.3/10 (167人评价)
◎豆瓣链接 https://movie.douban.com/subject/35155170/
◎导  演 乔纳斯·佩特 Jonas Pate
◎演  员 伊丽莎白·米切尔 Elizabeth Mitchell
      玛德琳·克莱因 Madelyn Cline
      蔡斯·斯托克斯 Chase Stokes
      德鲁·斯塔基 Drew Starkey
      萨曼莎·索尔 Samantha Soule
      库伦·莫斯 Cullen Moss
      谢勒·拉莫斯 Chelle Ramos
      洁西·高伊 Jessi Goei
      特伦斯·罗斯摩尔 Terence Rosemore
      亚当·威尼尔 Adam Vernier
      Madison Weidberg Madison Weidberg
      麦迪逊·贝利 Madison Bailey

◎简  介
    Netflix续订《#外滩探秘# Outer Banks》第二季。

##### MediaInfo ######
General
Complete name : Outer.Banks.S02E01.2021.NF.WEB-DL.1080p.HEVC.DV.DDP-Xiaomi.mp4
Format : MPEG-4
Format profile : Base Media
Codec ID : isom (isom)
File size : 2.25 GiB
Duration : 51 min 9 s
Overall bit rate mode : Variable
Overall bit rate : 6 290 kb/s
Encoded date : UTC 2021-08-04 17:46:45
Tagged date : UTC 2021-08-04 17:46:45

Video
ID : 1
Format : HEVC
Format/Info : High Efficiency Video Coding
Format profile : Main 10@L4@Main
HDR format : Dolby Vision, Version 1.0, dvhe.05.03, BL+RPU
Codec ID : dvhe
Codec ID/Info : High Efficiency Video Coding with Dolby Vision
Duration : 51 min 9 s
Bit rate : 5 515 kb/s
Width : 1 920 pixels
Height : 1 080 pixels
Display aspect ratio : 16:9
Frame rate mode : Constant
Frame rate : 23.976 (24000/1001) FPS
Color space : YUV
Chroma subsampling : 4:2:0
Bit depth : 10 bits
Bits/(Pixel*Frame) : 0.111
Stream size : 1.97 GiB (88%)
Default : No
Encoded date : UTC 2021-08-04 17:17:32
Tagged date : UTC 2021-08-04 17:46:59
Color range : Full
Codec configuration box : hvcC+dvcC

Audio
ID : 2
Format : E-AC-3 JOC
Format/Info : Enhanced AC-3 with Joint Object Coding
Commercial name : Dolby Digital Plus with Dolby Atmos
Codec ID : ec-3
Duration : 51 min 9 s
Bit rate mode : Constant
Bit rate : 768 kb/s
Maximum bit rate : 811 kb/s
Channel(s) : 6 channels
Channel layout : L R C LFE Ls Rs
Sampling rate : 48.0 kHz
Frame rate : 31.250 FPS (1536 SPF)
Compression mode : Lossy
Stream size : 281 MiB (12%)
Title : English
Language : English
Service kind : Complete Main
Encoded date : UTC 2021-08-04 17:46:51
Tagged date : UTC 2021-08-04 17:46:59
Complexity index : Not present / 16
Number of dynamic objects : 15
Bed channel count : 1 channel
Bed channel configuration : LFE

Text #1
ID : 3
Format : Timed Text
Codec ID : tx3g
Duration : 46 min 47 s
Bit rate mode : Variable
Bit rate : 120 b/s
Stream size : 41.2 KiB (0%)
Title : ????
Language : Arabic
Forced : No
Encoded date : UTC 2021-08-04 17:46:53
Tagged date : UTC 2021-08-04 17:46:59

Text #2
ID : 4
Format : Timed Text
Codec ID : tx3g
Duration : 46 min 47 s
Bit rate mode : Variable
Bit rate : 69 b/s
Stream size : 23.7 KiB (0%)
Title : Português
Language : Portuguese
Forced : No
Encoded date : UTC 2021-08-04 17:46:53
Tagged date : UTC 2021-08-04 17:46:59

Text #3
ID : 5
Format : Timed Text
Codec ID : tx3g
Duration : 49 min 16 s
Bit rate mode : Variable
Bit rate : 66 b/s
Stream size : 23.9 KiB (0%)
Title : ?esky
Language : Czech
Forced : No
Encoded date : UTC 2021-08-04 17:46:54
Tagged date : UTC 2021-08-04 17:46:59

Text #4
ID : 6
Format : Timed Text
Codec ID : tx3g
Duration : 49 min 16 s
Bit rate mode : Variable
Bit rate : 63 b/s
Stream size : 22.7 KiB (0%)
Title : dansk
Language : Danish
Forced : No
Encoded date : UTC 2021-08-04 17:46:54
Tagged date : UTC 2021-08-04 17:46:59

Text #5
ID : 7
Format : Timed Text
Codec ID : tx3g
Duration : 49 min 16 s
Bit rate mode : Variable
Bit rate : 67 b/s
Stream size : 24.2 KiB (0%)
Title : Deutsch
Language : German
Forced : No
Encoded date : UTC 2021-08-04 17:46:54
Tagged date : UTC 2021-08-04 17:46:59

Text #6
ID : 8
Format : Timed Text
Codec ID : tx3g
Duration : 49 min 16 s
Bit rate mode : Variable
Bit rate : 104 b/s
Stream size : 37.5 KiB (0%)
Title : ελληνικ?
Language : Greek
Forced : No
Encoded date : UTC 2021-08-04 17:46:54
Tagged date : UTC 2021-08-04 17:46:59

Text #7
ID : 9
Format : Timed Text
Codec ID : tx3g
Duration : 46 min 50 s
Bit rate mode : Variable
Bit rate : 157 b/s
Stream size : 53.8 KiB (0%)
Title : English
Language : English
Forced : No
Encoded date : UTC 2021-08-04 17:46:54
Tagged date : UTC 2021-08-04 17:46:59

Text #8
ID : 10
Format : Timed Text
Codec ID : tx3g
Duration : 49 min 16 s
Bit rate mode : Variable
Bit rate : 67 b/s
Stream size : 24.0 KiB (0%)
Title : Espa?ol?(Espa?a)
Language : Spanish
Forced : No
Encoded date : UTC 2021-08-04 17:46:54
Tagged date : UTC 2021-08-04 17:46:59

Text #9
ID : 11
Format : Timed Text
Codec ID : tx3g
Duration : 49 min 16 s
Bit rate mode : Variable
Bit rate : 66 b/s
Stream size : 23.8 KiB (0%)
Title : Vlaams
Language : Finnish
Forced : No
Encoded date : UTC 2021-08-04 17:46:55
Tagged date : UTC 2021-08-04 17:46:59

Text #10
ID : 12
Format : Timed Text
Codec ID : tx3g
Duration : 49 min 16 s
Bit rate mode : Variable
Bit rate : 68 b/s
Stream size : 24.5 KiB (0%)
Title : Fran?ais
Language : French
Forced : No
Encoded date : UTC 2021-08-04 17:46:55
Tagged date : UTC 2021-08-04 17:46:59

Text #11
ID : 13
Format : Timed Text
Codec ID : tx3g
Duration : 46 min 38 s
Bit rate mode : Variable
Bit rate : 110 b/s
Stream size : 37.7 KiB (0%)
Title : ????
Language : Hebrew
Forced : No
Encoded date : UTC 2021-08-04 17:46:55
Tagged date : UTC 2021-08-04 17:46:59

Text #12
ID : 14
Format : Timed Text
Codec ID : tx3g
Duration : 49 min 16 s
Bit rate mode : Variable
Bit rate : 59 b/s
Stream size : 21.2 KiB (0%)
Title : hrvatski
Language : Croatian
Forced : No
Encoded date : UTC 2021-08-04 17:46:55
Tagged date : UTC 2021-08-04 17:46:59

Text #13
ID : 15
Format : Timed Text
Codec ID : tx3g
Duration : 49 min 16 s
Bit rate mode : Variable
Bit rate : 66 b/s
Stream size : 24.0 KiB (0%)
Title : Magyar
Language : Hungarian
Forced : No
Encoded date : UTC 2021-08-04 17:46:55
Tagged date : UTC 2021-08-04 17:46:59

Text #14
ID : 16
Format : Timed Text
Codec ID : tx3g
Duration : 49 min 16 s
Bit rate mode : Variable
Bit rate : 67 b/s
Stream size : 24.1 KiB (0%)
Title : Indonesia
Language : Indonesian
Forced : No
Encoded date : UTC 2021-08-04 17:46:55
Tagged date : UTC 2021-08-04 17:46:59

Text #15
ID : 17
Format : Timed Text
Codec ID : tx3g
Duration : 49 min 16 s
Bit rate mode : Variable
Bit rate : 65 b/s
Stream size : 23.5 KiB (0%)
Title : Italiano
Language : Italian
Forced : No
Encoded date : UTC 2021-08-04 17:46:56
Tagged date : UTC 2021-08-04 17:46:59

Text #16
ID : 18
Format : Timed Text
Codec ID : tx3g
Duration : 49 min 16 s
Bit rate mode : Variable
Bit rate : 69 b/s
Stream size : 25.0 KiB (0%)
Title : 日本語
Language : Japanese
Forced : No
Encoded date : UTC 2021-08-04 17:46:56
Tagged date : UTC 2021-08-04 17:46:59

Text #17
ID : 19
Format : Timed Text
Codec ID : tx3g
Duration : 49 min 16 s
Bit rate mode : Variable
Bit rate : 84 b/s
Stream size : 30.3 KiB (0%)
Title : ???
Language : Korean
Forced : No
Encoded date : UTC 2021-08-04 17:46:56
Tagged date : UTC 2021-08-04 17:46:59

Text #18
ID : 20
Format : Timed Text
Codec ID : tx3g
Duration : 49 min 16 s
Bit rate mode : Variable
Bit rate : 67 b/s
Stream size : 24.2 KiB (0%)
Title : ???? ?????
Language : Malay
Forced : No
Encoded date : UTC 2021-08-04 17:46:56
Tagged date : UTC 2021-08-04 17:46:59

Text #19
ID : 21
Format : Timed Text
Codec ID : tx3g
Duration : 49 min 16 s
Bit rate mode : Variable
Bit rate : 59 b/s
Stream size : 21.4 KiB (0%)
Title : Nederlands
Language : Dutch
Forced : No
Encoded date : UTC 2021-08-04 17:46:56
Tagged date : UTC 2021-08-04 17:46:59

Text #20
ID : 22
Format : Timed Text
Codec ID : tx3g
Duration : 49 min 16 s
Bit rate mode : Variable
Bit rate : 62 b/s
Stream size : 22.5 KiB (0%)
Title : norsk
Language : Norwegian Bokmal
Forced : No
Encoded date : UTC 2021-08-04 17:46:57
Tagged date : UTC 2021-08-04 17:46:59

Text #21
ID : 23
Format : Timed Text
Codec ID : tx3g
Duration : 49 min 16 s
Bit rate mode : Variable
Bit rate : 63 b/s
Stream size : 22.8 KiB (0%)
Title : J?zyk polski
Language : Polish
Forced : No
Encoded date : UTC 2021-08-04 17:46:57
Tagged date : UTC 2021-08-04 17:46:59

Text #22
ID : 24
Format : Timed Text
Codec ID : tx3g
Duration : 46 min 38 s
Bit rate mode : Variable
Bit rate : 72 b/s
Stream size : 24.7 KiB (0%)
Title : Português
Language : Portuguese
Forced : No
Encoded date : UTC 2021-08-04 17:46:57
Tagged date : UTC 2021-08-04 17:46:59

Text #23
ID : 25
Format : Timed Text
Codec ID : tx3g
Duration : 49 min 16 s
Bit rate mode : Variable
Bit rate : 72 b/s
Stream size : 25.8 KiB (0%)
Title : Limba roman?
Language : Romanian
Forced : No
Encoded date : UTC 2021-08-04 17:46:57
Tagged date : UTC 2021-08-04 17:46:59

Text #24
ID : 26
Format : Timed Text
Codec ID : tx3g
Duration : 49 min 16 s
Bit rate mode : Variable
Bit rate : 102 b/s
Stream size : 36.8 KiB (0%)
Title : русский язык
Language : Russian
Forced : No
Encoded date : UTC 2021-08-04 17:46:57
Tagged date : UTC 2021-08-04 17:46:59

Text #25
ID : 27
Format : Timed Text
Codec ID : tx3g
Duration : 49 min 16 s
Bit rate mode : Variable
Bit rate : 65 b/s
Stream size : 23.4 KiB (0%)
Title : Espa?ol?(Latinoamérica)
Language : Spanish
Forced : No
Encoded date : UTC 2021-08-04 17:46:57
Tagged date : UTC 2021-08-04 17:46:59

Text #26
ID : 28
Format : Timed Text
Codec ID : tx3g
Duration : 49 min 16 s
Bit rate mode : Variable
Bit rate : 65 b/s
Stream size : 23.6 KiB (0%)
Title : svenska
Language : Swedish
Forced : No
Encoded date : UTC 2021-08-04 17:46:58
Tagged date : UTC 2021-08-04 17:46:59

Text #27
ID : 29
Format : Timed Text
Codec ID : tx3g
Duration : 49 min 16 s
Bit rate mode : Variable
Bit rate : 158 b/s
Stream size : 56.9 KiB (0%)
Title : ???
Language : Thai
Forced : No
Encoded date : UTC 2021-08-04 17:46:58
Tagged date : UTC 2021-08-04 17:46:59

Text #28
ID : 30
Format : Timed Text
Codec ID : tx3g
Duration : 49 min 16 s
Bit rate mode : Variable
Bit rate : 69 b/s
Stream size : 25.0 KiB (0%)
Title : Türk
Language : Turkish
Forced : No
Encoded date : UTC 2021-08-04 17:46:58
Tagged date : UTC 2021-08-04 17:46:59

Text #29
ID : 31
Format : Timed Text
Codec ID : tx3g
Duration : 49 min 16 s
Bit rate mode : Variable
Bit rate : 96 b/s
Stream size : 34.6 KiB (0%)
Title : Укра?нська
Language : Ukrainian
Forced : No
Encoded date : UTC 2021-08-04 17:46:58
Tagged date : UTC 2021-08-04 17:46:59

Text #30
ID : 32
Format : Timed Text
Codec ID : tx3g
Duration : 49 min 19 s
Bit rate mode : Variable
Bit rate : 90 b/s
Stream size : 32.4 KiB (0%)
Title : Ti?ng Vi?t
Language : Vietnamese
Forced : No
Encoded date : UTC 2021-08-04 17:46:58
Tagged date : UTC 2021-08-04 17:46:59

Text #31
ID : 33
Format : Timed Text
Codec ID : tx3g
Duration : 49 min 16 s
Bit rate mode : Variable
Bit rate : 74 b/s
Stream size : 26.5 KiB (0%)
Title : 中文(简体)
Language : Chinese
Forced : No
Encoded date : UTC 2021-08-04 17:46:58
Tagged date : UTC 2021-08-04 17:46:59

Text #32
ID : 34
Format : Timed Text
Codec ID : tx3g
Duration : 49 min 16 s
Bit rate mode : Variable
Bit rate : 72 b/s
Stream size : 25.9 KiB (0%)
Title : 中文(繁體)
Language : Chinese
Forced : No
Encoded date : UTC 2021-08-04 17:46:59
Tagged date : UTC 2021-08-04 17:46:59

点击图片可查看大图

软字幕无法在截图上展现,HDR版本/杜比视界版本截图会出现颜色异常,请使用支持的设备播放!

部分资源为软字幕,移动端推荐播放器:MxPlayer,nPlayer,infuse ,其他播放器请自行尝试。

部分资源为软字幕,电脑端推荐播放器:PotPlayer,完美解码,KMPLAYER,其他播放器请自行尝试。



1 个附件 售价 大小 下载 时间

Outer.Banks.S02.2021.NF.WEB-DL.1080p.HEVC.DV.DDP-Xiaomi[BTBTT].torrent 0 金币 57.68K 126 次 12月前

#1楼
发帖时间:2023-06-22 21:25:13   |   回复数:0
游客组