BILL36
隐世仙人♂

[2020] [美国] [剧情] [WEB-1080P] 外滩探秘 第一季[杜比视界版本][全10集][简繁英字幕].Outer.Banks.S01.2020.NF.WEB-DL.1080p.HEVC.DV.DDP-X

-->

完整标题:外滩探秘 第一季[杜比视界版本][全10集][简繁英字幕].Outer.Banks.S01.2020.NF.WEB-DL.1080p.HEVC.DV.DDP-Xiaomi 21.82GB



◎标  题 外滩探秘 第一季
◎译  名 外滩群岛
◎片  名 Outer Banks Season 1
◎年  代 2020
◎产  地 美国
◎类  别 剧情
◎语  言 英语
◎IMDb评分 7.5/10 (66708人评价)
◎IMDb链接 https://www.imdb.com/title/tt10293938/
◎豆瓣评分 7.3/10 (475人评价)
◎豆瓣链接 https://movie.douban.com/subject/34454230/
◎演  员 蔡斯·斯托克斯 Chase Stokes
      玛德琳·克莱因 Madelyn Cline
      奥斯汀·诺斯 Austin North
      查尔斯·伊斯滕 Charles Esten
      德鲁·斯塔基 Drew Starkey
      阿迪纳·波特 Adina Porter
      库伦·莫斯 Cullen Moss
      E·罗杰·米切尔 E. Roger Mitchell
      谢勒·拉莫斯 Chelle Ramos
      布瑞恩斯塔夫 Brian Stapf
      加里·维克斯 Gary Weeks
      查尔斯·哈尔福德 Charles Halford
      罗伯·马尔斯 Rob Mars
      萨曼莎·索尔 Samantha Soule
      戴维·尤里 David Ury
      亚当·威尼尔 Adam Vernier
      杰森·华纳·史密斯 Jayson Warner Smith
      凯莉·戴维斯 Kelley Davis
      玛丽·蕾切尔·达德利 Mary Rachel Dudley
      布拉德·詹姆斯 Brad James
      Donna Biscoe Donna Biscoe
      Gwydion Lashlee-Walton Gwydion Lashlee-Walton
      麦迪逊·贝利 Madison Bailey

◎简  介
    剧中讲述在北卡罗莱纳州的外滩群岛,一群来自贫民区﹑关系紧密的青少年团体「Pogues」想找到领头人的失踪父亲,而过程中他们找到隐藏着长久秘密的藏宝图。

##### MediaInfo ######
General
Complete name : Outer.Banks.S01E01.2020.NF.WEB-DL.1080p.HEVC.DV.DDP-Xiaomi.mp4
Format : MPEG-4
Format profile : Base Media
Codec ID : isom (isom)
File size : 2.37 GiB
Duration : 54 min 52 s
Overall bit rate mode : Variable
Overall bit rate : 6 173 kb/s
Encoded date : UTC 2021-08-04 17:12:00
Tagged date : UTC 2021-08-04 17:12:00

Video
ID : 1
Format : HEVC
Format/Info : High Efficiency Video Coding
Format profile : Main 10@L4@Main
HDR format : Dolby Vision, Version 1.0, dvhe.05.03, BL+RPU
Codec ID : dvhe
Codec ID/Info : High Efficiency Video Coding with Dolby Vision
Duration : 54 min 51 s
Bit rate : 5 525 kb/s
Width : 1 920 pixels
Height : 1 080 pixels
Display aspect ratio : 16:9
Frame rate mode : Constant
Frame rate : 23.976 (24000/1001) FPS
Color space : YUV
Chroma subsampling : 4:2:0
Bit depth : 10 bits
Bits/(Pixel*Frame) : 0.111
Stream size : 2.12 GiB (90%)
Default : No
Encoded date : UTC 2021-08-04 16:57:55
Tagged date : UTC 2021-08-04 17:12:15
Color range : Full
Codec configuration box : hvcC+dvcC

Audio
ID : 2
Format : E-AC-3
Format/Info : Enhanced AC-3
Commercial name : Dolby Digital Plus
Codec ID : ec-3
Duration : 54 min 52 s
Bit rate mode : Constant
Bit rate : 640 kb/s
Maximum bit rate : 676 kb/s
Channel(s) : 6 channels
Channel layout : L R C LFE Ls Rs
Sampling rate : 48.0 kHz
Frame rate : 31.250 FPS (1536 SPF)
Compression mode : Lossy
Stream size : 251 MiB (10%)
Title : English
Language : English
Service kind : Complete Main
Encoded date : UTC 2021-08-04 17:12:07
Tagged date : UTC 2021-08-04 17:12:15

Text #1
ID : 3
Format : Timed Text
Codec ID : tx3g
Duration : 53 min 6 s
Bit rate mode : Variable
Bit rate : 139 b/s
Stream size : 54.1 KiB (0%)
Title : ????
Language : Arabic
Forced : No
Encoded date : UTC 2021-08-04 17:12:09
Tagged date : UTC 2021-08-04 17:12:15

Text #2
ID : 4
Format : Timed Text
Codec ID : tx3g
Duration : 53 min 3 s
Bit rate mode : Variable
Bit rate : 87 b/s
Stream size : 33.7 KiB (0%)
Title : Português
Language : Portuguese
Forced : No
Encoded date : UTC 2021-08-04 17:12:09
Tagged date : UTC 2021-08-04 17:12:15

Text #3
ID : 5
Format : Timed Text
Codec ID : tx3g
Duration : 53 min 6 s
Bit rate mode : Variable
Bit rate : 83 b/s
Stream size : 32.1 KiB (0%)
Title : ?esky
Language : Czech
Forced : No
Encoded date : UTC 2021-08-04 17:12:09
Tagged date : UTC 2021-08-04 17:12:15

Text #4
ID : 6
Format : Timed Text
Codec ID : tx3g
Duration : 53 min 5 s
Bit rate mode : Variable
Bit rate : 79 b/s
Stream size : 30.8 KiB (0%)
Title : dansk
Language : Danish
Forced : No
Encoded date : UTC 2021-08-04 17:12:10
Tagged date : UTC 2021-08-04 17:12:15

Text #5
ID : 7
Format : Timed Text
Codec ID : tx3g
Duration : 52 min 57 s
Bit rate mode : Variable
Bit rate : 82 b/s
Stream size : 31.7 KiB (0%)
Title : Deutsch
Language : German
Forced : No
Encoded date : UTC 2021-08-04 17:12:10
Tagged date : UTC 2021-08-04 17:12:15

Text #6
ID : 8
Format : Timed Text
Codec ID : tx3g
Duration : 53 min 6 s
Bit rate mode : Variable
Bit rate : 132 b/s
Stream size : 51.2 KiB (0%)
Title : ελληνικ?
Language : Greek
Forced : No
Encoded date : UTC 2021-08-04 17:12:10
Tagged date : UTC 2021-08-04 17:12:15

Text #7
ID : 9
Format : Timed Text
Codec ID : tx3g
Duration : 51 min 11 s
Bit rate mode : Variable
Bit rate : 192 b/s
Stream size : 71.9 KiB (0%)
Title : English
Language : English
Forced : No
Encoded date : UTC 2021-08-04 17:12:10
Tagged date : UTC 2021-08-04 17:12:15

Text #8
ID : 10
Format : Timed Text
Codec ID : tx3g
Duration : 53 min 4 s
Bit rate mode : Variable
Bit rate : 78 b/s
Stream size : 30.4 KiB (0%)
Title : Espa?ol?(Espa?a)
Language : Spanish
Forced : No
Encoded date : UTC 2021-08-04 17:12:10
Tagged date : UTC 2021-08-04 17:12:15

Text #9
ID : 11
Format : Timed Text
Codec ID : tx3g
Duration : 53 min 4 s
Bit rate mode : Variable
Bit rate : 76 b/s
Stream size : 29.4 KiB (0%)
Title : Vlaams
Language : Finnish
Forced : No
Encoded date : UTC 2021-08-04 17:12:11
Tagged date : UTC 2021-08-04 17:12:15

Text #10
ID : 12
Format : Timed Text
Codec ID : tx3g
Duration : 53 min 6 s
Bit rate mode : Variable
Bit rate : 83 b/s
Stream size : 32.2 KiB (0%)
Title : Fran?ais
Language : French
Forced : No
Encoded date : UTC 2021-08-04 17:12:11
Tagged date : UTC 2021-08-04 17:12:15

Text #11
ID : 13
Format : Timed Text
Codec ID : tx3g
Duration : 53 min 1 s
Bit rate mode : Variable
Bit rate : 119 b/s
Stream size : 46.1 KiB (0%)
Title : ????
Language : Hebrew
Forced : No
Encoded date : UTC 2021-08-04 17:12:11
Tagged date : UTC 2021-08-04 17:12:15

Text #12
ID : 14
Format : Timed Text
Codec ID : tx3g
Duration : 53 min 6 s
Bit rate mode : Variable
Bit rate : 77 b/s
Stream size : 29.9 KiB (0%)
Title : hrvatski
Language : Croatian
Forced : No
Encoded date : UTC 2021-08-04 17:12:11
Tagged date : UTC 2021-08-04 17:12:15

Text #13
ID : 15
Format : Timed Text
Codec ID : tx3g
Duration : 53 min 6 s
Bit rate mode : Variable
Bit rate : 81 b/s
Stream size : 31.7 KiB (0%)
Title : Magyar
Language : Hungarian
Forced : No
Encoded date : UTC 2021-08-04 17:12:11
Tagged date : UTC 2021-08-04 17:12:15

Text #14
ID : 16
Format : Timed Text
Codec ID : tx3g
Duration : 53 min 6 s
Bit rate mode : Variable
Bit rate : 87 b/s
Stream size : 33.9 KiB (0%)
Title : Indonesia
Language : Indonesian
Forced : No
Encoded date : UTC 2021-08-04 17:12:12
Tagged date : UTC 2021-08-04 17:12:15

Text #15
ID : 17
Format : Timed Text
Codec ID : tx3g
Duration : 53 min 6 s
Bit rate mode : Variable
Bit rate : 84 b/s
Stream size : 32.6 KiB (0%)
Title : Italiano
Language : Italian
Forced : No
Encoded date : UTC 2021-08-04 17:12:12
Tagged date : UTC 2021-08-04 17:12:15

Text #16
ID : 18
Format : Timed Text
Codec ID : tx3g
Duration : 53 min 4 s
Bit rate mode : Variable
Bit rate : 70 b/s
Stream size : 27.3 KiB (0%)
Title : 日本語
Language : Japanese
Forced : No
Encoded date : UTC 2021-08-04 17:12:12
Tagged date : UTC 2021-08-04 17:12:15

Text #17
ID : 19
Format : Timed Text
Codec ID : tx3g
Duration : 53 min 6 s
Bit rate mode : Variable
Bit rate : 105 b/s
Stream size : 40.8 KiB (0%)
Title : ???
Language : Korean
Forced : No
Encoded date : UTC 2021-08-04 17:12:12
Tagged date : UTC 2021-08-04 17:12:15

Text #18
ID : 20
Format : Timed Text
Codec ID : tx3g
Duration : 53 min 4 s
Bit rate mode : Variable
Bit rate : 78 b/s
Stream size : 30.3 KiB (0%)
Title : ???? ?????
Language : Malay
Forced : No
Encoded date : UTC 2021-08-04 17:12:12
Tagged date : UTC 2021-08-04 17:12:15

Text #19
ID : 21
Format : Timed Text
Codec ID : tx3g
Duration : 53 min 6 s
Bit rate mode : Variable
Bit rate : 73 b/s
Stream size : 28.4 KiB (0%)
Title : Nederlands
Language : Dutch
Forced : No
Encoded date : UTC 2021-08-04 17:12:13
Tagged date : UTC 2021-08-04 17:12:15

Text #20
ID : 22
Format : Timed Text
Codec ID : tx3g
Duration : 53 min 3 s
Bit rate mode : Variable
Bit rate : 78 b/s
Stream size : 30.4 KiB (0%)
Title : norsk
Language : Norwegian Bokmal
Forced : No
Encoded date : UTC 2021-08-04 17:12:13
Tagged date : UTC 2021-08-04 17:12:15

Text #21
ID : 23
Format : Timed Text
Codec ID : tx3g
Duration : 53 min 6 s
Bit rate mode : Variable
Bit rate : 73 b/s
Stream size : 28.3 KiB (0%)
Title : J?zyk polski
Language : Polish
Forced : No
Encoded date : UTC 2021-08-04 17:12:13
Tagged date : UTC 2021-08-04 17:12:15

Text #22
ID : 24
Format : Timed Text
Codec ID : tx3g
Duration : 53 min 6 s
Bit rate mode : Variable
Bit rate : 83 b/s
Stream size : 32.4 KiB (0%)
Title : Português
Language : Portuguese
Forced : No
Encoded date : UTC 2021-08-04 17:12:13
Tagged date : UTC 2021-08-04 17:12:15

Text #23
ID : 25
Format : Timed Text
Codec ID : tx3g
Duration : 53 min 6 s
Bit rate mode : Variable
Bit rate : 93 b/s
Stream size : 36.2 KiB (0%)
Title : Limba roman?
Language : Romanian
Forced : No
Encoded date : UTC 2021-08-04 17:12:13
Tagged date : UTC 2021-08-04 17:12:15

Text #24
ID : 26
Format : Timed Text
Codec ID : tx3g
Duration : 53 min 6 s
Bit rate mode : Variable
Bit rate : 124 b/s
Stream size : 48.2 KiB (0%)
Title : русский язык
Language : Russian
Forced : No
Encoded date : UTC 2021-08-04 17:12:13
Tagged date : UTC 2021-08-04 17:12:15

Text #25
ID : 27
Format : Timed Text
Codec ID : tx3g
Duration : 53 min 6 s
Bit rate mode : Variable
Bit rate : 90 b/s
Stream size : 35.1 KiB (0%)
Title : Espa?ol?(Latinoamérica)
Language : Spanish
Forced : No
Encoded date : UTC 2021-08-04 17:12:14
Tagged date : UTC 2021-08-04 17:12:15

Text #26
ID : 28
Format : Timed Text
Codec ID : tx3g
Duration : 53 min 4 s
Bit rate mode : Variable
Bit rate : 79 b/s
Stream size : 30.9 KiB (0%)
Title : svenska
Language : Swedish
Forced : No
Encoded date : UTC 2021-08-04 17:12:14
Tagged date : UTC 2021-08-04 17:12:15

Text #27
ID : 29
Format : Timed Text
Codec ID : tx3g
Duration : 53 min 6 s
Bit rate mode : Variable
Bit rate : 180 b/s
Stream size : 70.1 KiB (0%)
Title : ???
Language : Thai
Forced : No
Encoded date : UTC 2021-08-04 17:12:14
Tagged date : UTC 2021-08-04 17:12:15

Text #28
ID : 30
Format : Timed Text
Codec ID : tx3g
Duration : 53 min 6 s
Bit rate mode : Variable
Bit rate : 82 b/s
Stream size : 31.7 KiB (0%)
Title : Türk
Language : Turkish
Forced : No
Encoded date : UTC 2021-08-04 17:12:14
Tagged date : UTC 2021-08-04 17:12:15

Text #29
ID : 31
Format : Timed Text
Codec ID : tx3g
Duration : 53 min 6 s
Bit rate mode : Variable
Bit rate : 125 b/s
Stream size : 48.6 KiB (0%)
Title : Укра?нська
Language : Ukrainian
Forced : No
Encoded date : UTC 2021-08-04 17:12:14
Tagged date : UTC 2021-08-04 17:12:15

Text #30
ID : 32
Format : Timed Text
Codec ID : tx3g
Duration : 53 min 6 s
Bit rate mode : Variable
Bit rate : 119 b/s
Stream size : 46.2 KiB (0%)
Title : Ti?ng Vi?t
Language : Vietnamese
Forced : No
Encoded date : UTC 2021-08-04 17:12:15
Tagged date : UTC 2021-08-04 17:12:15

Text #31
ID : 33
Format : Timed Text
Codec ID : tx3g
Duration : 53 min 6 s
Bit rate mode : Variable
Bit rate : 88 b/s
Stream size : 34.1 KiB (0%)
Title : 中文(简体)
Language : Chinese
Forced : No
Encoded date : UTC 2021-08-04 17:12:15
Tagged date : UTC 2021-08-04 17:12:15

Text #32
ID : 34
Format : Timed Text
Codec ID : tx3g
Duration : 53 min 6 s
Bit rate mode : Variable
Bit rate : 82 b/s
Stream size : 31.8 KiB (0%)
Title : 中文(繁體)
Language : Chinese
Forced : No
Encoded date : UTC 2021-08-04 17:12:15
Tagged date : UTC 2021-08-04 17:12:15

点击图片可查看大图

软字幕无法在截图上展现,HDR版本/杜比视界版本截图会出现颜色异常,请使用支持的设备播放!

部分资源为软字幕,移动端推荐播放器:MxPlayer,nPlayer,infuse ,其他播放器请自行尝试。

部分资源为软字幕,电脑端推荐播放器:PotPlayer,完美解码,KMPLAYER,其他播放器请自行尝试。



1 个附件 售价 大小 下载 时间

Outer.Banks.S01.2020.NF.WEB-DL.1080p.HEVC.DV.DDP-Xiaomi[BTBTT].torrent 0 金币 58.35K 238 次 12月前

#1楼
发帖时间:2023-06-22 21:25:20   |   回复数:0
游客组