BILL36
隐世仙人♂

[2019] [美国] [剧情] [WEB-1080P] 行尸之惧 第五季[全16集][国英多音轨/繁英字幕].Fear.the.Walking.Dead.S05.2019.Amazon.WEB-DL.1080p.HE

-->

完整标题:行尸之惧 第五季[全16集][国英多音轨/繁英字幕].Fear.the.Walking.Dead.S05.2019.Amazon.WEB-DL.1080p.HEVC.DDP-Xiaomi 37.91GB



◎标  题 行尸之惧 第五季
◎片  名 Fear the Walking Dead Season 5
◎年  代 2019
◎产  地 美国
◎类  别 剧情 / 科幻 / 惊悚
◎语  言 英语
◎IMDb评分 7.3/10 (2608人评价)
◎IMDb链接 https://www.imdb.com/title/tt8772598/
◎豆瓣评分 6.8/10 (1349人评价)
◎豆瓣链接 https://movie.douban.com/subject/30285829/
◎导  演 迈克尔·E·萨特拉米斯 Michael E. Satrazemis
      莎拉·韦恩·卡丽丝 Sarah Wayne Callies
      科尔曼·多明戈 Colman Domingo
      塔拉·妮可·韦尔 Tara Nicole Weyr
      玛尔塔·坎宁安 Marta Cunningham
      Dan Liu
◎编  剧 查理·阿德拉德 Charlie Adlard
      托尼·摩尔 Tony Moore
      萨米尔·梅塔 Samir Mehta
◎演  员 阿莉西娅·戴柏南·凯里 Alycia Debnam Carey
      科尔曼·多明戈 Colman Domingo
      丹妮·加西亚 Danay Garcia
      卢宾·布雷兹 Rubén Blades
      连尼·詹姆斯 Lennie James
      玛姬·格蕾斯 Maggie Grace
      加瑞特·迪拉胡特 Garret Dillahunt
      珍娜·艾夫曼 Jenna Elfman
      艾莉克莎·尼森森 Alexa Nisenson
      凯伦·戴维 Karen David
      莫·柯林斯 Mo Collins
      奥斯丁·阿梅里奥 Austin Amelio
      达里尔·米切尔 Daryl Mitchell
      马特·弗里沃 Matt Frewer

◎简  介
    AMC今天在TCA上宣布续订《#行尸之惧# Fear the Walking Dead》的第五季。

##### MediaInfo ######
General
Unique ID : 128168649950204270756581576284973696519 (0x606C625387E08C767A0C9A955FB60607)
Complete name : Fear.the.Walking.Dead.S05E01.2019.Amazon.WEB-DL.1080p.HEVC.DDP-Xiaomi.mkv
Format : Matroska
Format version : Version 4
File size : 2.33 GiB
Duration : 45 min 44 s
Overall bit rate : 7 282 kb/s
Encoded date : UTC 2021-09-29 15:23:58
Writing application : mkvmerge v46.0.0 ('No Deeper Escape') 64-bit
Writing library : libebml v1.3.10 + libmatroska v1.5.2

Video
ID : 1
Format : HEVC
Format/Info : High Efficiency Video Coding
Format profile : Main@L4@Main
Codec ID : V_MPEGH/ISO/HEVC
Duration : 45 min 44 s
Bit rate : 5 997 kb/s
Width : 1 920 pixels
Height : 1 080 pixels
Display aspect ratio : 16:9
Frame rate mode : Constant
Frame rate : 23.976 (24000/1001) FPS
Standard : NTSC
Color space : YUV
Chroma subsampling : 4:2:0
Bit depth : 8 bits
Bits/(Pixel*Frame) : 0.121
Stream size : 1.92 GiB (82%)
Default : Yes
Forced : No
Color range : Limited
Color primaries : BT.709
Transfer characteristics : BT.709
Matrix coefficients : BT.709

Audio #1
ID : 2
Format : E-AC-3
Format/Info : Enhanced AC-3
Commercial name : Dolby Digital Plus
Codec ID : A_EAC3
Duration : 45 min 44 s
Bit rate mode : Constant
Bit rate : 640 kb/s
Channel(s) : 6 channels
Channel layout : L R C LFE Ls Rs
Sampling rate : 48.0 kHz
Frame rate : 31.250 FPS (1536 SPF)
Compression mode : Lossy
Stream size : 209 MiB (9%)
Title : English
Language : English
Service kind : Complete Main
Default : No
Forced : No

Audio #2
ID : 3
Format : E-AC-3
Format/Info : Enhanced AC-3
Commercial name : Dolby Digital Plus
Codec ID : A_EAC3
Duration : 45 min 44 s
Bit rate mode : Constant
Bit rate : 640 kb/s
Channel(s) : 6 channels
Channel layout : L R C LFE Ls Rs
Sampling rate : 48.0 kHz
Frame rate : 31.250 FPS (1536 SPF)
Compression mode : Lossy
Stream size : 209 MiB (9%)
Title : 中文
Language : Chinese
Service kind : Complete Main
Default : No
Forced : No

Text #1
ID : 4
Format : UTF-8
Codec ID : S_TEXT/UTF8
Codec ID/Info : UTF-8 Plain Text
Duration : 44 min 51 s
Bit rate : 39 b/s
Count of elements : 464
Stream size : 12.9 KiB (0%)
Title : Dansk
Language : Danish
Default : No
Forced : No

Text #2
ID : 5
Format : UTF-8
Codec ID : S_TEXT/UTF8
Codec ID/Info : UTF-8 Plain Text
Duration : 44 min 51 s
Bit rate : 45 b/s
Count of elements : 496
Stream size : 15.1 KiB (0%)
Title : Deutsch
Language : German
Default : No
Forced : No

Text #3
ID : 6
Format : UTF-8
Codec ID : S_TEXT/UTF8
Codec ID/Info : UTF-8 Plain Text
Duration : 45 min 38 s
Bit rate : 48 b/s
Count of elements : 800
Stream size : 16.4 KiB (0%)
Title : English (SDH)
Language : English
Default : No
Forced : No

Text #4
ID : 7
Format : UTF-8
Codec ID : S_TEXT/UTF8
Codec ID/Info : UTF-8 Plain Text
Duration : 44 min 50 s
Bit rate : 43 b/s
Count of elements : 498
Stream size : 14.2 KiB (0%)
Title : Espa?ol (Espa?a)
Language : Spanish
Default : No
Forced : No

Text #5
ID : 8
Format : UTF-8
Codec ID : S_TEXT/UTF8
Codec ID/Info : UTF-8 Plain Text
Duration : 44 min 51 s
Bit rate : 45 b/s
Count of elements : 459
Stream size : 14.9 KiB (0%)
Title : Espa?ol (Latinoamérica)
Language : Spanish
Default : No
Forced : No

Text #6
ID : 9
Format : UTF-8
Codec ID : S_TEXT/UTF8
Codec ID/Info : UTF-8 Plain Text
Duration : 45 min 23 s
Bit rate : 36 b/s
Count of elements : 484
Stream size : 12.1 KiB (0%)
Title : Fran?ais
Language : French
Default : No
Forced : No

Text #7
ID : 10
Format : UTF-8
Codec ID : S_TEXT/UTF8
Codec ID/Info : UTF-8 Plain Text
Duration : 44 min 50 s
Bit rate : 33 b/s
Count of elements : 376
Stream size : 11.0 KiB (0%)
Title : Hrvatski
Language : Croatian
Default : No
Forced : No

Text #8
ID : 11
Format : UTF-8
Codec ID : S_TEXT/UTF8
Codec ID/Info : UTF-8 Plain Text
Duration : 44 min 50 s
Bit rate : 33 b/s
Count of elements : 497
Stream size : 11.0 KiB (0%)
Title : Hrvatski (Hrvatska)
Language : Croatian
Default : No
Forced : No

Text #9
ID : 12
Format : UTF-8
Codec ID : S_TEXT/UTF8
Codec ID/Info : UTF-8 Plain Text
Duration : 45 min 7 s
Bit rate : 42 b/s
Count of elements : 471
Stream size : 14.1 KiB (0%)
Title : Indonesia
Language : Indonesian
Default : No
Forced : No

Text #10
ID : 13
Format : UTF-8
Codec ID : S_TEXT/UTF8
Codec ID/Info : UTF-8 Plain Text
Duration : 44 min 50 s
Bit rate : 39 b/s
Count of elements : 501
Stream size : 13.1 KiB (0%)
Title : Italiano
Language : Italian
Default : No
Forced : No

Text #11
ID : 14
Format : UTF-8
Codec ID : S_TEXT/UTF8
Codec ID/Info : UTF-8 Plain Text
Duration : 45 min 7 s
Bit rate : 37 b/s
Count of elements : 484
Stream size : 12.5 KiB (0%)
Title : Magyar
Language : Hungarian
Default : No
Forced : No

Text #12
ID : 15
Format : UTF-8
Codec ID : S_TEXT/UTF8
Codec ID/Info : UTF-8 Plain Text
Duration : 44 min 50 s
Bit rate : 38 b/s
Count of elements : 489
Stream size : 12.7 KiB (0%)
Title : Nederlands
Language : Dutch
Default : No
Forced : No

Text #13
ID : 16
Format : UTF-8
Codec ID : S_TEXT/UTF8
Codec ID/Info : UTF-8 Plain Text
Duration : 44 min 51 s
Bit rate : 40 b/s
Count of elements : 466
Stream size : 13.4 KiB (0%)
Title : Norsk
Language : Norwegian
Default : No
Forced : No

Text #14
ID : 17
Format : UTF-8
Codec ID : S_TEXT/UTF8
Codec ID/Info : UTF-8 Plain Text
Duration : 44 min 50 s
Bit rate : 32 b/s
Count of elements : 479
Stream size : 10.7 KiB (0%)
Title : Polski
Language : Polish
Default : No
Forced : No

Text #15
ID : 18
Format : UTF-8
Codec ID : S_TEXT/UTF8
Codec ID/Info : UTF-8 Plain Text
Duration : 44 min 50 s
Bit rate : 41 b/s
Count of elements : 492
Stream size : 13.5 KiB (0%)
Title : Português (Portugal)
Language : Portuguese
Default : No
Forced : No

Text #16
ID : 19
Format : UTF-8
Codec ID : S_TEXT/UTF8
Codec ID/Info : UTF-8 Plain Text
Duration : 45 min 7 s
Bit rate : 46 b/s
Count of elements : 663
Stream size : 15.2 KiB (0%)
Title : Português (Brasil) [SDH](SDH)
Language : Portuguese
Default : No
Forced : No

Text #17
ID : 20
Format : UTF-8
Codec ID : S_TEXT/UTF8
Codec ID/Info : UTF-8 Plain Text
Duration : 44 min 50 s
Bit rate : 36 b/s
Count of elements : 499
Stream size : 12.0 KiB (0%)
Title : Roman?
Language : Romanian
Default : No
Forced : No

Text #18
ID : 21
Format : UTF-8
Codec ID : S_TEXT/UTF8
Codec ID/Info : UTF-8 Plain Text
Duration : 44 min 50 s
Bit rate : 41 b/s
Count of elements : 496
Stream size : 13.7 KiB (0%)
Title : Shqip
Language : Albanian
Default : No
Forced : No

Text #19
ID : 22
Format : UTF-8
Codec ID : S_TEXT/UTF8
Codec ID/Info : UTF-8 Plain Text
Duration : 44 min 50 s
Bit rate : 31 b/s
Count of elements : 376
Stream size : 10.3 KiB (0%)
Title : Sloven??ina
Language : Slovenian
Default : No
Forced : No

Text #20
ID : 23
Format : UTF-8
Codec ID : S_TEXT/UTF8
Codec ID/Info : UTF-8 Plain Text
Duration : 44 min 51 s
Bit rate : 42 b/s
Count of elements : 462
Stream size : 14.1 KiB (0%)
Title : Suomi
Language : Finnish
Default : No
Forced : No

Text #21
ID : 24
Format : UTF-8
Codec ID : S_TEXT/UTF8
Codec ID/Info : UTF-8 Plain Text
Duration : 44 min 51 s
Bit rate : 38 b/s
Count of elements : 463
Stream size : 12.6 KiB (0%)
Title : Svenska
Language : Swedish
Default : No
Forced : No

Text #22
ID : 25
Format : UTF-8
Codec ID : S_TEXT/UTF8
Codec ID/Info : UTF-8 Plain Text
Duration : 44 min 50 s
Bit rate : 42 b/s
Count of elements : 484
Stream size : 14.0 KiB (0%)
Title : Türk?e
Language : Turkish
Default : No
Forced : No

Text #23
ID : 26
Format : UTF-8
Codec ID : S_TEXT/UTF8
Codec ID/Info : UTF-8 Plain Text
Duration : 44 min 50 s
Bit rate : 36 b/s
Count of elements : 494
Stream size : 12.1 KiB (0%)
Title : ?e?tina
Language : Czech
Default : No
Forced : No

Text #24
ID : 27
Format : UTF-8
Codec ID : S_TEXT/UTF8
Codec ID/Info : UTF-8 Plain Text
Duration : 44 min 50 s
Bit rate : 69 b/s
Count of elements : 497
Stream size : 22.9 KiB (0%)
Title : Ελληνικ?
Language : Greek
Default : No
Forced : No

Text #25
ID : 28
Format : UTF-8
Codec ID : S_TEXT/UTF8
Codec ID/Info : UTF-8 Plain Text
Duration : 44 min 50 s
Bit rate : 62 b/s
Count of elements : 501
Stream size : 20.5 KiB (0%)
Title : Български
Language : Bulgarian
Default : No
Forced : No

Text #26
ID : 29
Format : UTF-8
Codec ID : S_TEXT/UTF8
Codec ID/Info : UTF-8 Plain Text
Duration : 44 min 50 s
Bit rate : 72 b/s
Count of elements : 406
Stream size : 23.8 KiB (0%)
Title : Македонски
Language : Macedonian
Default : No
Forced : No

Text #27
ID : 30
Format : UTF-8
Codec ID : S_TEXT/UTF8
Codec ID/Info : UTF-8 Plain Text
Duration : 44 min 50 s
Bit rate : 63 b/s
Count of elements : 490
Stream size : 20.9 KiB (0%)
Title : Српски
Language : Serbian
Default : No
Forced : No

Text #28
ID : 31
Format : UTF-8
Codec ID : S_TEXT/UTF8
Codec ID/Info : UTF-8 Plain Text
Duration : 44 min 50 s
Bit rate : 59 b/s
Count of elements : 503
Stream size : 19.5 KiB (0%)
Title : ?????
Language : Hebrew
Default : No
Forced : No

Text #29
ID : 32
Format : UTF-8
Codec ID : S_TEXT/UTF8
Codec ID/Info : UTF-8 Plain Text
Duration : 44 min 50 s
Bit rate : 60 b/s
Count of elements : 502
Stream size : 20.0 KiB (0%)
Title : ???????
Language : Arabic
Default : No
Forced : No

Text #30
ID : 33
Format : UTF-8
Codec ID : S_TEXT/UTF8
Codec ID/Info : UTF-8 Plain Text
Duration : 45 min 7 s
Bit rate : 98 b/s
Count of elements : 482
Stream size : 32.5 KiB (0%)
Title : ???
Language : Thai
Default : No
Forced : No

Text #31
ID : 34
Format : UTF-8
Codec ID : S_TEXT/UTF8
Codec ID/Info : UTF-8 Plain Text
Duration : 45 min 11 s
Bit rate : 40 b/s
Count of elements : 496
Stream size : 13.5 KiB (0%)
Title : 中文(繁體)
Language : Chinese
Default : No
Forced : No

Text #32
ID : 35
Format : UTF-8
Codec ID : S_TEXT/UTF8
Codec ID/Info : UTF-8 Plain Text
Duration : 44 min 50 s
Bit rate : 32 b/s
Count of elements : 455
Stream size : 10.5 KiB (0%)
Title : 日本語
Language : Japanese
Default : No
Forced : No

点击图片可查看大图

软字幕无法在截图上展现,HDR版本/杜比视界版本截图会出现颜色异常,请使用支持的设备播放!

部分资源为软字幕,移动端推荐播放器:MxPlayer,nPlayer,infuse ,其他播放器请自行尝试。

部分资源为软字幕,电脑端推荐播放器:PotPlayer,完美解码,KMPLAYER,其他播放器请自行尝试。



1 个附件 售价 大小 下载 时间

Fear.the.Walking.Dead.S05.2019.Amazon.WEB-DL.1080p.HEVC.DDP-Xiaomi[BTBTT].torrent 0 金币 99.27K 945 次 11月前

#1楼
发帖时间:2023-06-22 21:26:25   |   回复数:0
游客组