BILL36
隐世仙人♂

[2018] [美国] [剧情] [WEB-1080P] 行尸之惧 第四季[全16集][国英多音轨/简繁英字幕].Fear.the.Walking.Dead.S04.2018.Amazon.WEB-DL.1080p.H

-->

完整标题:行尸之惧 第四季[全16集][国英多音轨/简繁英字幕].Fear.the.Walking.Dead.S04.2018.Amazon.WEB-DL.1080p.HEVC.DDP-Xiaomi 36.07GB



◎标  题 行尸之惧 第四季
◎片  名 Fear the Walking Dead Season 4
◎年  代 2018
◎产  地 美国
◎类  别 剧情 / 科幻 / 惊悚
◎语  言 英语
◎IMDb评分 8.1/10 (4456人评价)
◎IMDb链接 https://www.imdb.com/title/tt6785160/
◎豆瓣评分 6.9/10 (1834人评价)
◎豆瓣链接 https://movie.douban.com/subject/27664847/
◎导  演 迈克尔·E·萨特拉米斯 Michael E. Satrazemis
      马格努斯·马滕斯 Magnus Martens
◎编  剧 罗伯特·柯克曼 Robert Kirkman
      托尼·摩尔 Tony Moore
      查理·阿德拉德 Charlie Adlard
      理查德·纳英 Richard Naing
◎演  员 金·迪肯斯 Kim Dickens
      阿莉西娅·戴柏南·凯里 Alycia Debnam Carey
      弗兰克·迪兰 Frank Dillane
      玛姬·格蕾斯 Maggie Grace
      科尔曼·多明戈 Colman Domingo
      丹妮·加西亚 Danay Garcia
      加瑞特·迪拉胡特 Garret Dillahunt
      连尼·詹姆斯 Lennie James
      珍娜·艾夫曼 Jenna Elfman
      艾莉克莎·尼森森 Alexa Nisenson
      安德鲁·林肯 Andrew Lincoln
      梅丽莎·麦克布莱德 Melissa McBride
      汤姆·佩恩 Tom Payne
      凯文·席格斯 Kevin Zegers
      卢宾·布雷兹 Rubén Blades

◎简  介
    观众和媒体对于本季的关注,几乎全都放在Morgan Jones(Lennie James)这个角色身上——毕竟这个角色起到桥接该剧和母剧《行尸走肉》(The Walking Dead)的重要作用,也是《行尸走肉》和《行尸危途》开播以来第一次出现情节交叉的情况。因为《行尸危途》的故事时间要比《行尸走肉》早很多,因此观众在《行尸危途》中看到的Morgan是「过去的Morgan」——《行尸走肉》首集中的Morgan,甚至更早。在遇到Rick等人之前,Morgan有过另外的朋友、另外的敌人和另外的威胁。@www.airuib.com   第四季的故事地点主要设定在德州,故事时间可能会发生一定幅度的时间跳跃。Alicia Clark、Victor Strand和Luciana Galvez都还活着。其中Luciana已经消失了很长一段时间(这是第三季Luciana中途离开后我们第一次见到这个角色),她如何回归、如何找到Alicia和Strand都耐人寻味。Madison Clarke和Nick也仍然是核心角色。除了这五位,其他回归角色的身份本季都可能发生变化(有些不再是常规角色,有些大幅减少了戏份,有些干脆不再出现)。   除了Morgan之外,本季还新增了多个重要角色:   Jenna Elfman扮演生存者Naomi,在僵尸末日时代完全有能力独自生活——事实上她已经独自生活很长时间了。当她遇到Madison及其家人后,自然而然地保持着高度戒心。随着剧情发展,观众会发现她为什么对人总是冷冰冰的,为什么与别人保持距离。即便如此,她还是与某些角色(特别是Alicia)产生了某种共鸣,这让她自己都感觉惊讶。她有时给人幽默的感觉,有时又给人轻浮的感觉。   Maggie Grace扮演生存者Althea,她看起来就像是《行尸走肉》中的Maggie。她在僵尸末日时代的生存技能,很大程度上来源于僵尸危机爆发前积累的经验。她携带了一些令人印象深刻的武器,好奇心很强,而且善于理解别人,这给了她战术优势。Althea从来不相信「不劳而获之利益」,只相信自己的艰苦奋斗。她有一个坚定的目标,Strand似乎对这个目标颇感兴趣。   Evan Gamble扮演多集角色Ennis,一个缺陷明显、外表凌乱的男人,他永远都只关心自己。   Kevin Zegers扮演一个神秘角色。

##### MediaInfo ######
General
Unique ID : 333223413253679266449687129561079738779 (0xFAB07EB6B8DD18A84B387C4A7277F19B)
Complete name : Fear.the.Walking.Dead.S04E01.2018.Amazon.WEB-DL.1080p.HEVC.DDP-Xiaomi.mkv
Format : Matroska
Format version : Version 4
File size : 2.57 GiB
Duration : 49 min 8 s
Overall bit rate : 7 474 kb/s
Encoded date : UTC 2021-09-29 11:49:12
Writing application : mkvmerge v46.0.0 ('No Deeper Escape') 64-bit
Writing library : libebml v1.3.10 + libmatroska v1.5.2

Video
ID : 1
Format : HEVC
Format/Info : High Efficiency Video Coding
Format profile : Main@L4@Main
Codec ID : V_MPEGH/ISO/HEVC
Duration : 49 min 8 s
Bit rate : 6 189 kb/s
Width : 1 920 pixels
Height : 1 080 pixels
Display aspect ratio : 16:9
Frame rate mode : Constant
Frame rate : 23.976 (24000/1001) FPS
Standard : NTSC
Color space : YUV
Chroma subsampling : 4:2:0
Bit depth : 8 bits
Bits/(Pixel*Frame) : 0.124
Stream size : 2.12 GiB (83%)
Writing library : x265 0.0:[Linux][GCC 4.8.2][64 bit] 8bit+10bit+12bit
Encoding settings : cpuid=1173503 / frame-threads=1 / wpp / no-pmode / no-pme / psnr / ssim / log-level=2 / csvfn=/apollo/env/YoshiEncodingWorkflowActivitiesLinuxEncoding/var/tmp/1582999905/c2462fbd-d86f-480a-bce4-0513feb7eec9/e6d3de6a-7749-4560-9e48-8a4c32905950_video_1080p_9000kbps.csv / csv-log-level=2 / input-csp=1 / input-res=1920x1080 / interlace=0 / total-frames=0 / level-idc=40 / high-tier=1 / uhd-bd=0 / ref=5 / no-allow-non-conformance / no-repeat-headers / annexb / no-aud / no-hrd / info / hash=0 / no-temporal-layers / no-open-gop / min-keyint=61 / keyint=120 / bframes=5 / b-adapt=2 / b-pyramid / bframe-bias=0 / rc-lookahead=120 / lookahead-slices=0 / scenecut=0 / no-intra-refresh / ctu=64 / min-cu-size=8 / rect / no-amp / max-tu-size=32 / tu-inter-depth=1 / tu-intra-depth=1 / limit-tu=0 / rdoq-level=2 / dynamic-rd=0.00 / no-ssim-rd / signhide / no-tskip / nr-intra=0 / nr-inter=200 / no-constrained-intra / strong-intra-smoothing / max-merge=3 / limit-refs=3 / limit-modes / me=3 / subme=3 / merange=57 / temporal-mvp / weightp / no-weightb / no-analyze-src-pics / deblock=0:0 / no-sao / no-sao-non-deblock / rd=4 / no-early-skip / rskip / no-fast-intra / no-tskip-fast / no-cu-lossless / no-b-intra / rdpenalty=0 / psy-rd=2.00 / psy-rdoq=1.00 / no-rd-refine / analysis-reuse-mode=0 / no-lossless / cbqpoffs=0 / crqpoffs=0 / rc=crf / crf=20.5 / qcomp=0.60 / qpstep=4 / stats-write=0 / stats-read=0 / vbv-maxrate=9000 / vbv-bufsize=12000 / vbv-init=0.9 / crf-max=0.0 / crf-min=0.0 / ipratio=1.40 / pbratio=1.30 / aq-mode=2 / aq-strength=1.00 / no-cutree / zone-count=0 / no-strict-cbr / qg-size=32 / no-rc-grain / qpmax=69 / qpmin=0 / no-const-vbv / sar=1 / overscan=0 / videoformat=2 / range=0 / colorprim=1 / transfer=1 / colormatrix=1 / chromaloc=0 / display-window=0 / max-cll=0,0 / min-luma=0 / max-luma=255 / log2-max-poc-lsb=8 / vui-timing-info / vui-hrd-info / slices=1 / opt-qp-pps / opt-ref-list-length-pps / no-multi-pass-opt-rps / scenecut-bias=0.05 / no-opt-cu-delta-qp / no-aq-motion / no-hdr / no-hdr-opt / no-dhdr10-opt / analysis-reuse-level=5 / scale-factor=0 / refine-intra=0 / refine-inter=0 / refine-mv=0 / no-limit-sao / ctu-info=0
Default : Yes
Forced : No
Color range : Limited
Color primaries : BT.709
Transfer characteristics : BT.709
Matrix coefficients : BT.709

Audio #1
ID : 2
Format : E-AC-3
Format/Info : Enhanced AC-3
Commercial name : Dolby Digital Plus
Codec ID : A_EAC3
Duration : 49 min 8 s
Bit rate mode : Constant
Bit rate : 640 kb/s
Channel(s) : 6 channels
Channel layout : L R C LFE Ls Rs
Sampling rate : 48.0 kHz
Frame rate : 31.250 FPS (1536 SPF)
Compression mode : Lossy
Stream size : 225 MiB (9%)
Title : English
Language : English
Service kind : Complete Main
Default : No
Forced : No

Audio #2
ID : 3
Format : E-AC-3
Format/Info : Enhanced AC-3
Commercial name : Dolby Digital Plus
Codec ID : A_EAC3
Duration : 49 min 8 s
Bit rate mode : Constant
Bit rate : 640 kb/s
Channel(s) : 6 channels
Channel layout : L R C LFE Ls Rs
Sampling rate : 48.0 kHz
Frame rate : 31.250 FPS (1536 SPF)
Compression mode : Lossy
Stream size : 225 MiB (9%)
Title : 中文
Language : Chinese
Service kind : Complete Main
Default : No
Forced : No

Text #1
ID : 4
Format : UTF-8
Codec ID : S_TEXT/UTF8
Codec ID/Info : UTF-8 Plain Text
Duration : 48 min 24 s
Bit rate : 28 b/s
Count of elements : 422
Stream size : 10.2 KiB (0%)
Title : Bosanski
Language : Bosnian
Default : No
Forced : No

Text #2
ID : 5
Format : UTF-8
Codec ID : S_TEXT/UTF8
Codec ID/Info : UTF-8 Plain Text
Duration : 47 min 49 s
Bit rate : 30 b/s
Count of elements : 375
Stream size : 10.7 KiB (0%)
Title : Dansk
Language : Danish
Default : No
Forced : No

Text #3
ID : 6
Format : UTF-8
Codec ID : S_TEXT/UTF8
Codec ID/Info : UTF-8 Plain Text
Duration : 47 min 48 s
Bit rate : 35 b/s
Count of elements : 421
Stream size : 12.5 KiB (0%)
Title : Deutsch
Language : German
Default : No
Forced : No

Text #4
ID : 7
Format : UTF-8
Codec ID : S_TEXT/UTF8
Codec ID/Info : UTF-8 Plain Text
Duration : 48 min 36 s
Bit rate : 41 b/s
Count of elements : 601
Stream size : 14.8 KiB (0%)
Title : English (SDH)
Language : English
Default : No
Forced : No

Text #5
ID : 8
Format : UTF-8
Codec ID : S_TEXT/UTF8
Codec ID/Info : UTF-8 Plain Text
Duration : 48 min 24 s
Bit rate : 30 b/s
Count of elements : 422
Stream size : 10.8 KiB (0%)
Title : Espa?ol (Espa?a)
Language : Spanish
Default : No
Forced : No

Text #6
ID : 9
Format : UTF-8
Codec ID : S_TEXT/UTF8
Codec ID/Info : UTF-8 Plain Text
Duration : 48 min 25 s
Bit rate : 31 b/s
Count of elements : 417
Stream size : 11.1 KiB (0%)
Title : Espa?ol (Latinoamérica)
Language : Spanish
Default : No
Forced : No

Text #7
ID : 10
Format : UTF-8
Codec ID : S_TEXT/UTF8
Codec ID/Info : UTF-8 Plain Text
Duration : 47 min 48 s
Bit rate : 30 b/s
Count of elements : 421
Stream size : 10.8 KiB (0%)
Title : Fran?ais
Language : French
Default : No
Forced : No

Text #8
ID : 11
Format : UTF-8
Codec ID : S_TEXT/UTF8
Codec ID/Info : UTF-8 Plain Text
Duration : 48 min 24 s
Bit rate : 29 b/s
Count of elements : 384
Stream size : 10.3 KiB (0%)
Title : Hrvatski
Language : Croatian
Default : No
Forced : No

Text #9
ID : 12
Format : UTF-8
Codec ID : S_TEXT/UTF8
Codec ID/Info : UTF-8 Plain Text
Duration : 48 min 24 s
Bit rate : 33 b/s
Count of elements : 445
Stream size : 12.0 KiB (0%)
Title : Indonesia
Language : Indonesian
Default : No
Forced : No

Text #10
ID : 13
Format : UTF-8
Codec ID : S_TEXT/UTF8
Codec ID/Info : UTF-8 Plain Text
Duration : 47 min 49 s
Bit rate : 30 b/s
Count of elements : 426
Stream size : 10.7 KiB (0%)
Title : Italiano
Language : Italian
Default : No
Forced : No

Text #11
ID : 14
Format : UTF-8
Codec ID : S_TEXT/UTF8
Codec ID/Info : UTF-8 Plain Text
Duration : 47 min 49 s
Bit rate : 27 b/s
Count of elements : 421
Stream size : 9.57 KiB (0%)
Title : Magyar
Language : Hungarian
Default : No
Forced : No

Text #12
ID : 15
Format : UTF-8
Codec ID : S_TEXT/UTF8
Codec ID/Info : UTF-8 Plain Text
Duration : 48 min 24 s
Bit rate : 27 b/s
Count of elements : 394
Stream size : 9.69 KiB (0%)
Title : Nederlands
Language : Dutch
Default : No
Forced : No

Text #13
ID : 16
Format : UTF-8
Codec ID : S_TEXT/UTF8
Codec ID/Info : UTF-8 Plain Text
Duration : 47 min 49 s
Bit rate : 30 b/s
Count of elements : 373
Stream size : 10.8 KiB (0%)
Title : Norsk
Language : Norwegian
Default : No
Forced : No

Text #14
ID : 17
Format : UTF-8
Codec ID : S_TEXT/UTF8
Codec ID/Info : UTF-8 Plain Text
Duration : 47 min 49 s
Bit rate : 24 b/s
Count of elements : 383
Stream size : 8.61 KiB (0%)
Title : Polski
Language : Polish
Default : No
Forced : No

Text #15
ID : 18
Format : UTF-8
Codec ID : S_TEXT/UTF8
Codec ID/Info : UTF-8 Plain Text
Duration : 48 min 25 s
Bit rate : 30 b/s
Count of elements : 381
Stream size : 10.9 KiB (0%)
Title : Português (Brasil)
Language : Portuguese
Default : No
Forced : No

Text #16
ID : 19
Format : UTF-8
Codec ID : S_TEXT/UTF8
Codec ID/Info : UTF-8 Plain Text
Duration : 48 min 24 s
Bit rate : 29 b/s
Count of elements : 419
Stream size : 10.6 KiB (0%)
Title : Português (Portugal)
Language : Portuguese
Default : No
Forced : No

Text #17
ID : 20
Format : UTF-8
Codec ID : S_TEXT/UTF8
Codec ID/Info : UTF-8 Plain Text
Duration : 48 min 24 s
Bit rate : 27 b/s
Count of elements : 420
Stream size : 9.91 KiB (0%)
Title : Roman?
Language : Romanian
Default : No
Forced : No

Text #18
ID : 21
Format : UTF-8
Codec ID : S_TEXT/UTF8
Codec ID/Info : UTF-8 Plain Text
Duration : 48 min 24 s
Bit rate : 30 b/s
Count of elements : 405
Stream size : 10.8 KiB (0%)
Title : Shqip
Language : Albanian
Default : No
Forced : No

Text #19
ID : 22
Format : UTF-8
Codec ID : S_TEXT/UTF8
Codec ID/Info : UTF-8 Plain Text
Duration : 48 min 24 s
Bit rate : 25 b/s
Count of elements : 377
Stream size : 8.88 KiB (0%)
Title : Sloven??ina
Language : Slovenian
Default : No
Forced : No

Text #20
ID : 23
Format : UTF-8
Codec ID : S_TEXT/UTF8
Codec ID/Info : UTF-8 Plain Text
Duration : 47 min 49 s
Bit rate : 29 b/s
Count of elements : 373
Stream size : 10.5 KiB (0%)
Title : Suomi
Language : Finnish
Default : No
Forced : No

Text #21
ID : 24
Format : UTF-8
Codec ID : S_TEXT/UTF8
Codec ID/Info : UTF-8 Plain Text
Duration : 47 min 49 s
Bit rate : 31 b/s
Count of elements : 373
Stream size : 10.9 KiB (0%)
Title : Svenska
Language : Swedish
Default : No
Forced : No

Text #22
ID : 25
Format : UTF-8
Codec ID : S_TEXT/UTF8
Codec ID/Info : UTF-8 Plain Text
Duration : 48 min 24 s
Bit rate : 33 b/s
Count of elements : 423
Stream size : 11.7 KiB (0%)
Title : Türk?e
Language : Turkish
Default : No
Forced : No

Text #23
ID : 26
Format : UTF-8
Codec ID : S_TEXT/UTF8
Codec ID/Info : UTF-8 Plain Text
Duration : 47 min 49 s
Bit rate : 30 b/s
Count of elements : 339
Stream size : 10.6 KiB (0%)
Title : ?e?tina
Language : Czech
Default : No
Forced : No

Text #24
ID : 27
Format : UTF-8
Codec ID : S_TEXT/UTF8
Codec ID/Info : UTF-8 Plain Text
Duration : 48 min 24 s
Bit rate : 51 b/s
Count of elements : 419
Stream size : 18.3 KiB (0%)
Title : Ελληνικ?
Language : Greek
Default : No
Forced : No

Text #25
ID : 28
Format : UTF-8
Codec ID : S_TEXT/UTF8
Codec ID/Info : UTF-8 Plain Text
Duration : 48 min 24 s
Bit rate : 48 b/s
Count of elements : 422
Stream size : 17.1 KiB (0%)
Title : Български
Language : Bulgarian
Default : No
Forced : No

Text #26
ID : 29
Format : UTF-8
Codec ID : S_TEXT/UTF8
Codec ID/Info : UTF-8 Plain Text
Duration : 48 min 24 s
Bit rate : 46 b/s
Count of elements : 422
Stream size : 16.5 KiB (0%)
Title : Македонски
Language : Macedonian
Default : No
Forced : No

Text #27
ID : 30
Format : UTF-8
Codec ID : S_TEXT/UTF8
Codec ID/Info : UTF-8 Plain Text
Duration : 48 min 24 s
Bit rate : 45 b/s
Count of elements : 416
Stream size : 16.3 KiB (0%)
Title : Српски
Language : Serbian
Default : No
Forced : No

Text #28
ID : 31
Format : UTF-8
Codec ID : S_TEXT/UTF8
Codec ID/Info : UTF-8 Plain Text
Duration : 48 min 24 s
Bit rate : 40 b/s
Count of elements : 424
Stream size : 14.5 KiB (0%)
Title : ?????
Language : Hebrew
Default : No
Forced : No

Text #29
ID : 32
Format : UTF-8
Codec ID : S_TEXT/UTF8
Codec ID/Info : UTF-8 Plain Text
Duration : 48 min 24 s
Bit rate : 40 b/s
Count of elements : 424
Stream size : 14.5 KiB (0%)
Title : ????? (?????)
Language : Hebrew
Default : No
Forced : No

Text #30
ID : 33
Format : UTF-8
Codec ID : S_TEXT/UTF8
Codec ID/Info : UTF-8 Plain Text
Duration : 48 min 24 s
Bit rate : 41 b/s
Count of elements : 419
Stream size : 14.6 KiB (0%)
Title : ???????
Language : Arabic
Default : No
Forced : No

Text #31
ID : 34
Format : UTF-8
Codec ID : S_TEXT/UTF8
Codec ID/Info : UTF-8 Plain Text
Duration : 48 min 24 s
Bit rate : 64 b/s
Count of elements : 431
Stream size : 22.8 KiB (0%)
Title : ???
Language : Thai
Default : No
Forced : No

Text #32
ID : 35
Format : UTF-8
Codec ID : S_TEXT/UTF8
Codec ID/Info : UTF-8 Plain Text
Duration : 48 min 24 s
Bit rate : 26 b/s
Count of elements : 424
Stream size : 9.23 KiB (0%)
Title : 中文(简体)
Language : Chinese
Default : No
Forced : No

Text #33
ID : 36
Format : UTF-8
Codec ID : S_TEXT/UTF8
Codec ID/Info : UTF-8 Plain Text
Duration : 48 min 24 s
Bit rate : 27 b/s
Count of elements : 456
Stream size : 9.80 KiB (0%)
Title : 中文(繁體)
Language : Chinese
Default : No
Forced : No

Text #34
ID : 37
Format : UTF-8
Codec ID : S_TEXT/UTF8
Codec ID/Info : UTF-8 Plain Text
Duration : 48 min 24 s
Bit rate : 23 b/s
Count of elements : 409
Stream size : 8.45 KiB (0%)
Title : 日本語
Language : Japanese
Default : No
Forced : No

Text #35
ID : 38
Format : UTF-8
Codec ID : S_TEXT/UTF8
Codec ID/Info : UTF-8 Plain Text
Duration : 48 min 24 s
Bit rate : 27 b/s
Count of elements : 457
Stream size : 9.75 KiB (0%)
Title : 粵語(繁體)
Language : Chinese
Default : No
Forced : No

Text #36
ID : 39
Format : UTF-8
Codec ID : S_TEXT/UTF8
Codec ID/Info : UTF-8 Plain Text
Duration : 48 min 24 s
Bit rate : 33 b/s
Count of elements : 424
Stream size : 11.9 KiB (0%)
Title : ???
Language : Korean
Default : No
Forced : No

点击图片可查看大图

软字幕无法在截图上展现,HDR版本/杜比视界版本截图会出现颜色异常,请使用支持的设备播放!

部分资源为软字幕,移动端推荐播放器:MxPlayer,nPlayer,infuse ,其他播放器请自行尝试。

部分资源为软字幕,电脑端推荐播放器:PotPlayer,完美解码,KMPLAYER,其他播放器请自行尝试。



1 个附件 售价 大小 下载 时间

Fear.the.Walking.Dead.S04.2018.Amazon.WEB-DL.1080p.HEVC.DDP-Xiaomi[BTBTT].torrent 0 金币 94.71K 1257 次 12月前

#1楼
发帖时间:2023-06-22 21:26:31   |   回复数:0
游客组