BILL36
隐世仙人♂

[2021] [其它] [剧情] [WEB-1080P] 致命点击[全8集][简繁英字幕].Clickbait.S01.2021.NF.WEB-DL.1080p.HEVC.HDR.DDP-Xiaomi 16.37GB

-->

完整标题:致命点击[全8集][简繁英字幕].Clickbait.S01.2021.NF.WEB-DL.1080p.HEVC.HDR.DDP-Xiaomi 16.37GB



◎标  题 致命点击
◎译  名 标题党 / 点击诱饵
◎片  名 Clickbait
◎年  代 2021
◎产  地 澳大利亚 / 美国
◎类  别 剧情 / 悬疑 / 惊悚 / 犯罪
◎语  言 英语
◎IMDb评分 7.2/10 (55634人评价)
◎IMDb链接 https://www.imdb.com/title/tt10888878/
◎豆瓣评分 7.4/10 (10696人评价)
◎豆瓣链接 https://movie.douban.com/subject/34805719/
◎导  演 布拉德·安德森 Brad Anderson
      艾玛·弗里曼 Emma Freeman
      本·扬 Ben Young
      切瑞·诺兰 Cherie Nowlan
◎编  剧 托尼·艾尔斯 Tony Ayres
      克里斯蒂安·怀特 Christian White
      皮特·麦克蒂赫 Pete McTighe
      梅丽莎·斯克里夫纳·勒沃 Melissa Scrivner-Love
      布拉德福德·温特斯 Bradford Winters
◎演  员 佐伊·卡赞 Zoe Kazan
      贝蒂·加布里埃尔 Betty Gabriel
      菲尼克斯·拉伊 Phoenix Raei
      艾德里安·格尼尔 Adrian Grenier
      卡梅隆·恩格斯 Camaron Engels
      杰琳·弗莱彻 Jaylin Fletcher
      伊恩 麦杜思 Ian Meadows
      伊丽莎白·亚历山大 Elizabeth Alexander
      亚伯拉罕·林 Abraham Lim
      贝卡·利什 Becca Lish
      杰西卡·科林斯 Jessica Collins
      斯蒂夫·莫察基斯 Steve Mouzakis
      Kate Lister Kate Lister
      瑞妮·林 Renee Lim
      丹尼尔·亨绍尔 Daniel Henshall
      沃利·邓恩 Wally Dunn
      托德·列维 Todd Levi
      杰米·提莫尼 Jamie Timony
      黛博拉·劳伦斯 Debra Lawrance
      苏·希尔 Sue Hill
      乔丹·杜力乌 Jordan Dulieu
      迈克尔·M·福斯特 Michael M. Foster
      詹姆斯·D·韦斯顿二世 James D. Weston II
      泰勒·弗格森 Taylor Ferguson
      吉莉安·阮 Jillian Nguyen
      布莱克·德雷珀 Blake Draper

◎简  介
    Netflix与知名澳剧运作人Tony Ayres(《一记耳光》《阴差阳错》)、制片人大卫·海曼(《哈利·波特》《地心引力》)合作推出惊悚剧《标题党》(Clickbait),讲述“在社交媒体年代,我们最危险、不受控制的冲动如何被刺激加剧,以及现实人格与网络人格越来越严重的割裂”。   Ayres和Christian White一起担任剧集主创和制作人,Ayres任运作人,White编剧,Brad Anderson(《罪人》)为主要导演,NBC环球旗下的Matchbox影业也参与制作,将在墨尔本拍摄,共8集。

##### MediaInfo ######
General
Unique ID : 45997838623250857833244626342370370029 (0x229ADC89D52FF5B2802FD52E03B461ED)
Complete name : Clickbait.S01E01.2021.NF.WEB-DL.1080p.HEVC.HDR.DDP-Xiaomi.mkv
Format : Matroska
Format version : Version 4
File size : 1.92 GiB
Duration : 44 min 16 s
Overall bit rate : 6 197 kb/s
Encoded date : UTC 2021-08-26 13:57:14
Writing application : mkvmerge v51.0.0 ('I Wish') 64-bit
Writing library : libebml v1.4.0 + libmatroska v1.6.2

Video
ID : 1
Format : HEVC
Format/Info : High Efficiency Video Coding
Format profile : Main 10@L4@Main
HDR format : SMPTE ST 2086, HDR10 compatible
Codec ID : V_MPEGH/ISO/HEVC
Duration : 42 min 47 s
Bit rate : 5 611 kb/s
Width : 1 920 pixels
Height : 1 080 pixels
Display aspect ratio : 16:9
Frame rate mode : Constant
Frame rate : 25.000 FPS
Color space : YUV
Chroma subsampling : 4:2:0 (Type 2)
Bit depth : 10 bits
Bits/(Pixel*Frame) : 0.108
Stream size : 1.68 GiB (87%)
Default : Yes
Forced : No
Color range : Limited
Color primaries : BT.2020
Transfer characteristics : PQ
Matrix coefficients : BT.2020 non-constant
Mastering display color primaries : Display P3
Mastering display luminance : min: 0.0001 cd/m2, max: 1000 cd/m2
Maximum Content Light Level : 900 cd/m2
Maximum Frame-Average Light Level : 270 cd/m2

Audio
ID : 2
Format : E-AC-3 JOC
Format/Info : Enhanced AC-3 with Joint Object Coding
Commercial name : Dolby Digital Plus with Dolby Atmos
Codec ID : A_EAC3
Duration : 44 min 16 s
Bit rate mode : Constant
Bit rate : 768 kb/s
Channel(s) : 6 channels
Channel layout : L R C LFE Ls Rs
Sampling rate : 48.0 kHz
Frame rate : 31.250 FPS (1536 SPF)
Compression mode : Lossy
Stream size : 243 MiB (12%)
Title : English
Language : English
Service kind : Complete Main
Default : Yes
Forced : No
Complexity index : 16
Number of dynamic objects : 15
Bed channel count : 1 channel
Bed channel configuration : LFE

Text #1
ID : 3
Format : UTF-8
Codec ID : S_TEXT/UTF8
Codec ID/Info : UTF-8 Plain Text
Duration : 40 min 0 s
Bit rate : 90 b/s
Count of elements : 754
Stream size : 26.5 KiB (0%)
Title : English
Language : English
Default : Yes
Forced : No

Text #2
ID : 4
Format : UTF-8
Codec ID : S_TEXT/UTF8
Codec ID/Info : UTF-8 Plain Text
Duration : 42 min 22 s
Bit rate : 131 b/s
Count of elements : 680
Stream size : 40.9 KiB (0%)
Title : ????
Language : Arabic
Default : No
Forced : No

Text #3
ID : 5
Format : UTF-8
Codec ID : S_TEXT/UTF8
Codec ID/Info : UTF-8 Plain Text
Duration : 42 min 22 s
Bit rate : 73 b/s
Count of elements : 680
Stream size : 22.8 KiB (0%)
Title : 中文(简体)
Language : Chinese
Default : No
Forced : No

Text #4
ID : 6
Format : UTF-8
Codec ID : S_TEXT/UTF8
Codec ID/Info : UTF-8 Plain Text
Duration : 42 min 22 s
Bit rate : 76 b/s
Count of elements : 680
Stream size : 23.9 KiB (0%)
Title : 中文(繁體)
Language : Chinese
Default : No
Forced : No

Text #5
ID : 7
Format : UTF-8
Codec ID : S_TEXT/UTF8
Codec ID/Info : UTF-8 Plain Text
Duration : 42 min 22 s
Bit rate : 60 b/s
Count of elements : 675
Stream size : 18.9 KiB (0%)
Title : hrvatski
Language : Croatian
Default : No
Forced : No

Text #6
ID : 8
Format : UTF-8
Codec ID : S_TEXT/UTF8
Codec ID/Info : UTF-8 Plain Text
Duration : 42 min 22 s
Bit rate : 73 b/s
Count of elements : 680
Stream size : 22.7 KiB (0%)
Title : ?esky
Language : Czech
Default : No
Forced : No

Text #7
ID : 9
Format : UTF-8
Codec ID : S_TEXT/UTF8
Codec ID/Info : UTF-8 Plain Text
Duration : 42 min 24 s
Bit rate : 66 b/s
Count of elements : 611
Stream size : 20.7 KiB (0%)
Title : dansk
Language : Danish
Default : No
Forced : No

Text #8
ID : 10
Format : UTF-8
Codec ID : S_TEXT/UTF8
Codec ID/Info : UTF-8 Plain Text
Duration : 42 min 22 s
Bit rate : 61 b/s
Count of elements : 539
Stream size : 19.1 KiB (0%)
Title : Nederlands
Language : Dutch
Default : No
Forced : No

Text #9
ID : 11
Format : UTF-8
Codec ID : S_TEXT/UTF8
Codec ID/Info : UTF-8 Plain Text
Duration : 42 min 24 s
Bit rate : 65 b/s
Count of elements : 610
Stream size : 20.4 KiB (0%)
Title : Vlaams
Language : Finnish
Default : No
Forced : No

Text #10
ID : 12
Format : UTF-8
Codec ID : S_TEXT/UTF8
Codec ID/Info : UTF-8 Plain Text
Duration : 42 min 26 s
Bit rate : 61 b/s
Count of elements : 638
Stream size : 19.1 KiB (0%)
Title : Fran?ais
Language : French
Default : No
Forced : No

Text #11
ID : 13
Format : UTF-8
Codec ID : S_TEXT/UTF8
Codec ID/Info : UTF-8 Plain Text
Duration : 42 min 22 s
Bit rate : 67 b/s
Count of elements : 616
Stream size : 21.0 KiB (0%)
Title : Deutsch
Language : German
Default : No
Forced : No

Text #12
ID : 14
Format : UTF-8
Codec ID : S_TEXT/UTF8
Codec ID/Info : UTF-8 Plain Text
Duration : 42 min 22 s
Bit rate : 126 b/s
Count of elements : 674
Stream size : 39.2 KiB (0%)
Title : ελληνικ?
Language : Greek
Default : No
Forced : No

Text #13
ID : 15
Format : UTF-8
Codec ID : S_TEXT/UTF8
Codec ID/Info : UTF-8 Plain Text
Duration : 42 min 22 s
Bit rate : 105 b/s
Count of elements : 675
Stream size : 32.6 KiB (0%)
Title : ????
Language : Hebrew
Default : No
Forced : No

Text #14
ID : 16
Format : UTF-8
Codec ID : S_TEXT/UTF8
Codec ID/Info : UTF-8 Plain Text
Duration : 42 min 22 s
Bit rate : 64 b/s
Count of elements : 676
Stream size : 19.9 KiB (0%)
Title : Magyar
Language : Hungarian
Default : No
Forced : No

Text #15
ID : 17
Format : UTF-8
Codec ID : S_TEXT/UTF8
Codec ID/Info : UTF-8 Plain Text
Duration : 42 min 22 s
Bit rate : 69 b/s
Count of elements : 673
Stream size : 21.5 KiB (0%)
Title : Indonesia
Language : Indonesian
Default : No
Forced : No

Text #16
ID : 18
Format : UTF-8
Codec ID : S_TEXT/UTF8
Codec ID/Info : UTF-8 Plain Text
Duration : 42 min 22 s
Bit rate : 68 b/s
Count of elements : 666
Stream size : 21.2 KiB (0%)
Title : Italiano
Language : Italian
Default : No
Forced : No

Text #17
ID : 19
Format : UTF-8
Codec ID : S_TEXT/UTF8
Codec ID/Info : UTF-8 Plain Text
Duration : 42 min 22 s
Bit rate : 64 b/s
Count of elements : 734
Stream size : 20.1 KiB (0%)
Title : 日本語
Language : Japanese
Default : No
Forced : No

Text #18
ID : 20
Format : UTF-8
Codec ID : S_TEXT/UTF8
Codec ID/Info : UTF-8 Plain Text
Duration : 42 min 22 s
Bit rate : 85 b/s
Count of elements : 680
Stream size : 26.5 KiB (0%)
Title : ???
Language : Korean
Default : No
Forced : No

Text #19
ID : 21
Format : UTF-8
Codec ID : S_TEXT/UTF8
Codec ID/Info : UTF-8 Plain Text
Duration : 42 min 22 s
Bit rate : 64 b/s
Count of elements : 676
Stream size : 20.1 KiB (0%)
Title : ???? ?????
Language : Malay
Default : No
Forced : No

Text #20
ID : 22
Format : UTF-8
Codec ID : S_TEXT/UTF8
Codec ID/Info : UTF-8 Plain Text
Duration : 42 min 24 s
Bit rate : 65 b/s
Count of elements : 598
Stream size : 20.5 KiB (0%)
Title : norsk
Language : Norwegian Bokmal
Default : No
Forced : No

Text #21
ID : 23
Format : UTF-8
Codec ID : S_TEXT/UTF8
Codec ID/Info : UTF-8 Plain Text
Duration : 42 min 22 s
Bit rate : 61 b/s
Count of elements : 677
Stream size : 19.2 KiB (0%)
Title : J?zyk polski
Language : Polish
Default : No
Forced : No

Text #22
ID : 24
Format : UTF-8
Codec ID : S_TEXT/UTF8
Codec ID/Info : UTF-8 Plain Text
Duration : 42 min 22 s
Bit rate : 65 b/s
Count of elements : 673
Stream size : 20.5 KiB (0%)
Title : Português
Language : Portuguese
Default : No
Forced : No

Text #23
ID : 25
Format : UTF-8
Codec ID : S_TEXT/UTF8
Codec ID/Info : UTF-8 Plain Text
Duration : 42 min 22 s
Bit rate : 69 b/s
Count of elements : 676
Stream size : 21.4 KiB (0%)
Title : Português
Language : Portuguese
Default : No
Forced : No

Text #24
ID : 26
Format : UTF-8
Codec ID : S_TEXT/UTF8
Codec ID/Info : UTF-8 Plain Text
Duration : 42 min 22 s
Bit rate : 72 b/s
Count of elements : 670
Stream size : 22.6 KiB (0%)
Title : Limba roman?
Language : Romanian
Default : No
Forced : No

Text #25
ID : 27
Format : UTF-8
Codec ID : S_TEXT/UTF8
Codec ID/Info : UTF-8 Plain Text
Duration : 42 min 20 s
Bit rate : 108 b/s
Count of elements : 686
Stream size : 33.6 KiB (0%)
Title : русский язык
Language : Russian
Default : No
Forced : No

Text #26
ID : 28
Format : UTF-8
Codec ID : S_TEXT/UTF8
Codec ID/Info : UTF-8 Plain Text
Duration : 42 min 22 s
Bit rate : 65 b/s
Count of elements : 676
Stream size : 20.3 KiB (0%)
Title : Espa?ol?(Latinoamérica)
Language : Spanish
Default : No
Forced : No

Text #27
ID : 29
Format : UTF-8
Codec ID : S_TEXT/UTF8
Codec ID/Info : UTF-8 Plain Text
Duration : 42 min 22 s
Bit rate : 75 b/s
Count of elements : 672
Stream size : 23.5 KiB (0%)
Title : Espa?ol?(Espa?a)
Language : Spanish
Default : No
Forced : No

Text #28
ID : 30
Format : UTF-8
Codec ID : S_TEXT/UTF8
Codec ID/Info : UTF-8 Plain Text
Duration : 42 min 24 s
Bit rate : 67 b/s
Count of elements : 592
Stream size : 21.0 KiB (0%)
Title : svenska
Language : Swedish
Default : No
Forced : No

Text #29
ID : 31
Format : UTF-8
Codec ID : S_TEXT/UTF8
Codec ID/Info : UTF-8 Plain Text
Duration : 42 min 22 s
Bit rate : 157 b/s
Count of elements : 680
Stream size : 49.0 KiB (0%)
Title : ???
Language : Thai
Default : No
Forced : No

Text #30
ID : 32
Format : UTF-8
Codec ID : S_TEXT/UTF8
Codec ID/Info : UTF-8 Plain Text
Duration : 42 min 22 s
Bit rate : 69 b/s
Count of elements : 670
Stream size : 21.7 KiB (0%)
Title : Türk
Language : Turkish
Default : No
Forced : No

Text #31
ID : 33
Format : UTF-8
Codec ID : S_TEXT/UTF8
Codec ID/Info : UTF-8 Plain Text
Duration : 42 min 20 s
Bit rate : 105 b/s
Count of elements : 684
Stream size : 32.7 KiB (0%)
Title : Укра?нська
Language : Ukrainian
Default : No
Forced : No

Text #32
ID : 34
Format : UTF-8
Codec ID : S_TEXT/UTF8
Codec ID/Info : UTF-8 Plain Text
Duration : 42 min 22 s
Bit rate : 86 b/s
Count of elements : 676
Stream size : 26.8 KiB (0%)
Title : Ti?ng Vi?t
Language : Vietnamese
Default : No
Forced : No

点击图片可查看大图

软字幕无法在截图上展现,HDR版本/杜比视界版本截图会出现颜色异常,请使用支持的设备播放!

部分资源为软字幕,移动端推荐播放器:MxPlayer,nPlayer,infuse ,其他播放器请自行尝试。

部分资源为软字幕,电脑端推荐播放器:PotPlayer,完美解码,KMPLAYER,其他播放器请自行尝试。



1 个附件 售价 大小 下载 时间

Clickbait.S01.2021.NF.WEB-DL.1080p.HEVC.HDR.DDP-Xiaomi[BTBTT].torrent 0 金币 44.49K 168 次 12月前

#1楼
发帖时间:2023-06-22 21:26:50   |   回复数:0
游客组