BILL36
隐世仙人♂

[2021] [美国] [剧情] [WEB-1080P] 樱桃新滋味[全8集][简繁英字幕].Brand.New.Cherry.Flavor.S01.2021.NF.WEB-DL.1080p.HEVC.HDR.DDP-

-->

完整标题:樱桃新滋味[全8集][简繁英字幕].Brand.New.Cherry.Flavor.S01.2021.NF.WEB-DL.1080p.HEVC.HDR.DDP-Xiaomi 15.26GB



◎标  题 樱桃新滋味
◎译  名 全新樱桃味
◎片  名 Brand New Cherry Flavor
◎年  代 2021
◎产  地 美国
◎类  别 剧情 / 悬疑 / 惊悚 / 恐怖
◎语  言 英语
◎IMDb评分 7.1/10 (16839人评价)
◎IMDb链接 https://www.imdb.com/title/tt11343600/
◎豆瓣评分 6.3/10 (1103人评价)
◎豆瓣链接 https://movie.douban.com/subject/34925239/
◎导  演 杰克·施莱尔 Jake Schreier
      马特·索贝尔 Matt Sobel
      尼克·安托斯卡 Nick Antosca
      阿卡莎·史蒂文森 Arkasha Stevenson
◎编  剧 尼克·安托斯卡 Nick Antosca
      勒诺·锡安 Lenore Zion
      克里斯蒂娜·哈姆 Christina Ham
◎演  员 罗莎·萨拉查 Rosa Salazar
      丹尼尔·多尼 Daniel Doheny
      凯瑟琳·基纳 Catherine Keener
      埃里克·兰格 Eric Lange
      汉娜·莱维恩 Hannah Levien
      达西·劳瑞 Darcy Laurie
      伊娃·阿里尔·宾德 Eva Ariel Binder
      利兰·奥瑟 Leland Orser
      杰森·布莱尔 Jayson Blair
      派特里克·费斯克勒 Patrick Fischler
      皮特·安蒂克 Pete Antico
      乔治亚·布拉德纳 Georgia Bradner
      莱雅·卡里恩斯 Leah Cairns
      杰西卡·麦丽奥德 Jessica McLeod
      曼尼·贾希尼托 Manny Jacinto
      杰夫·沃德 Jeff Ward
      Aya Furukawa Aya Furukawa
      Jason Gray Jason Gray

◎简  介
    在 1990 年的洛杉矶,一位有抱负的电影导演在这个阳光灿烂却充满阴暗的世界里踏上了一段影响心灵的超自然复仇之旅。

##### MediaInfo ######
General
Unique ID : 104664398584744122960757844019443434978 (0x4EBDA143643EE2F0B1FD194B4D5485E2)
Complete name : Brand.New.Cherry.Flavor.S01E01.2021.NF.WEB-DL.1080p.HEVC.HDR.DDP-Xiaomi.mkv
Format : Matroska
Format version : Version 4
File size : 2.31 GiB
Duration : 51 min 51 s
Overall bit rate : 6 380 kb/s
Encoded date : UTC 2021-08-14 17:06:58
Writing application : mkvmerge v51.0.0 ('I Wish') 64-bit
Writing library : libebml v1.4.0 + libmatroska v1.6.2

Video
ID : 1
Format : HEVC
Format/Info : High Efficiency Video Coding
Format profile : Main 10@L4@Main
HDR format : SMPTE ST 2086, HDR10 compatible
Codec ID : V_MPEGH/ISO/HEVC
Duration : 50 min 28 s
Bit rate : 5 761 kb/s
Width : 1 920 pixels
Height : 1 080 pixels
Display aspect ratio : 16:9
Frame rate mode : Constant
Frame rate : 23.976 (24000/1001) FPS
Color space : YUV
Chroma subsampling : 4:2:0 (Type 2)
Bit depth : 10 bits
Bits/(Pixel*Frame) : 0.116
Stream size : 2.03 GiB (88%)
Default : Yes
Forced : No
Color range : Limited
Color primaries : BT.2020
Transfer characteristics : PQ
Matrix coefficients : BT.2020 non-constant
Mastering display color primaries : Display P3
Mastering display luminance : min: 0.0001 cd/m2, max: 1000 cd/m2
Maximum Content Light Level : 3863 cd/m2
Maximum Frame-Average Light Level : 204 cd/m2

Audio
ID : 2
Format : E-AC-3 JOC
Format/Info : Enhanced AC-3 with Joint Object Coding
Commercial name : Dolby Digital Plus with Dolby Atmos
Codec ID : A_EAC3
Duration : 51 min 51 s
Bit rate mode : Constant
Bit rate : 768 kb/s
Channel(s) : 6 channels
Channel layout : L R C LFE Ls Rs
Sampling rate : 48.0 kHz
Frame rate : 31.250 FPS (1536 SPF)
Compression mode : Lossy
Stream size : 285 MiB (12%)
Title : English
Language : English
Service kind : Complete Main
Default : Yes
Forced : No
Complexity index : 16
Number of dynamic objects : 15
Bed channel count : 1 channel
Bed channel configuration : LFE

Text #1
ID : 3
Format : UTF-8
Codec ID : S_TEXT/UTF8
Codec ID/Info : UTF-8 Plain Text
Duration : 50 min 8 s
Bit rate : 65 b/s
Count of elements : 604
Stream size : 23.9 KiB (0%)
Title : English
Language : English
Default : Yes
Forced : No

Text #2
ID : 4
Format : UTF-8
Codec ID : S_TEXT/UTF8
Codec ID/Info : UTF-8 Plain Text
Duration : 50 min 16 s
Bit rate : 75 b/s
Count of elements : 510
Stream size : 27.7 KiB (0%)
Title : ????
Language : Arabic
Default : No
Forced : No

Text #3
ID : 5
Format : UTF-8
Codec ID : S_TEXT/UTF8
Codec ID/Info : UTF-8 Plain Text
Duration : 50 min 16 s
Bit rate : 43 b/s
Count of elements : 504
Stream size : 15.8 KiB (0%)
Title : 中文(简体)
Language : Chinese
Default : No
Forced : No

Text #4
ID : 6
Format : UTF-8
Codec ID : S_TEXT/UTF8
Codec ID/Info : UTF-8 Plain Text
Duration : 50 min 16 s
Bit rate : 44 b/s
Count of elements : 512
Stream size : 16.3 KiB (0%)
Title : 中文(繁體)
Language : Chinese
Default : No
Forced : No

Text #5
ID : 7
Format : UTF-8
Codec ID : S_TEXT/UTF8
Codec ID/Info : UTF-8 Plain Text
Duration : 50 min 16 s
Bit rate : 38 b/s
Count of elements : 507
Stream size : 14.0 KiB (0%)
Title : hrvatski
Language : Croatian
Default : No
Forced : No

Text #6
ID : 8
Format : UTF-8
Codec ID : S_TEXT/UTF8
Codec ID/Info : UTF-8 Plain Text
Duration : 50 min 16 s
Bit rate : 42 b/s
Count of elements : 509
Stream size : 15.7 KiB (0%)
Title : ?esky
Language : Czech
Default : No
Forced : No

Text #7
ID : 9
Format : UTF-8
Codec ID : S_TEXT/UTF8
Codec ID/Info : UTF-8 Plain Text
Duration : 50 min 16 s
Bit rate : 39 b/s
Count of elements : 508
Stream size : 14.6 KiB (0%)
Title : dansk
Language : Danish
Default : No
Forced : No

Text #8
ID : 10
Format : UTF-8
Codec ID : S_TEXT/UTF8
Codec ID/Info : UTF-8 Plain Text
Duration : 50 min 16 s
Bit rate : 38 b/s
Count of elements : 483
Stream size : 14.3 KiB (0%)
Title : Nederlands
Language : Dutch
Default : No
Forced : No

Text #9
ID : 11
Format : UTF-8
Codec ID : S_TEXT/UTF8
Codec ID/Info : UTF-8 Plain Text
Duration : 50 min 16 s
Bit rate : 41 b/s
Count of elements : 491
Stream size : 15.2 KiB (0%)
Title : Vlaams
Language : Finnish
Default : No
Forced : No

Text #10
ID : 12
Format : UTF-8
Codec ID : S_TEXT/UTF8
Codec ID/Info : UTF-8 Plain Text
Duration : 50 min 16 s
Bit rate : 43 b/s
Count of elements : 498
Stream size : 16.0 KiB (0%)
Title : Fran?ais
Language : French
Default : No
Forced : No

Text #11
ID : 13
Format : UTF-8
Codec ID : S_TEXT/UTF8
Codec ID/Info : UTF-8 Plain Text
Duration : 50 min 16 s
Bit rate : 43 b/s
Count of elements : 501
Stream size : 16.0 KiB (0%)
Title : Deutsch
Language : German
Default : No
Forced : No

Text #12
ID : 14
Format : UTF-8
Codec ID : S_TEXT/UTF8
Codec ID/Info : UTF-8 Plain Text
Duration : 50 min 16 s
Bit rate : 72 b/s
Count of elements : 510
Stream size : 26.6 KiB (0%)
Title : ελληνικ?
Language : Greek
Default : No
Forced : No

Text #13
ID : 15
Format : UTF-8
Codec ID : S_TEXT/UTF8
Codec ID/Info : UTF-8 Plain Text
Duration : 50 min 16 s
Bit rate : 72 b/s
Count of elements : 517
Stream size : 26.6 KiB (0%)
Title : ????
Language : Hebrew
Default : No
Forced : No

Text #14
ID : 16
Format : UTF-8
Codec ID : S_TEXT/UTF8
Codec ID/Info : UTF-8 Plain Text
Duration : 50 min 16 s
Bit rate : 38 b/s
Count of elements : 509
Stream size : 14.0 KiB (0%)
Title : Magyar
Language : Hungarian
Default : No
Forced : No

Text #15
ID : 17
Format : UTF-8
Codec ID : S_TEXT/UTF8
Codec ID/Info : UTF-8 Plain Text
Duration : 50 min 16 s
Bit rate : 41 b/s
Count of elements : 507
Stream size : 15.3 KiB (0%)
Title : Indonesia
Language : Indonesian
Default : No
Forced : No

Text #16
ID : 18
Format : UTF-8
Codec ID : S_TEXT/UTF8
Codec ID/Info : UTF-8 Plain Text
Duration : 50 min 16 s
Bit rate : 41 b/s
Count of elements : 501
Stream size : 15.4 KiB (0%)
Title : Italiano
Language : Italian
Default : No
Forced : No

Text #17
ID : 19
Format : UTF-8
Codec ID : S_TEXT/UTF8
Codec ID/Info : UTF-8 Plain Text
Duration : 50 min 10 s
Bit rate : 43 b/s
Count of elements : 511
Stream size : 16.0 KiB (0%)
Title : 日本語
Language : Japanese
Default : No
Forced : No

Text #18
ID : 20
Format : UTF-8
Codec ID : S_TEXT/UTF8
Codec ID/Info : UTF-8 Plain Text
Duration : 50 min 16 s
Bit rate : 50 b/s
Count of elements : 510
Stream size : 18.5 KiB (0%)
Title : ???
Language : Korean
Default : No
Forced : No

Text #19
ID : 21
Format : UTF-8
Codec ID : S_TEXT/UTF8
Codec ID/Info : UTF-8 Plain Text
Duration : 50 min 16 s
Bit rate : 45 b/s
Count of elements : 494
Stream size : 16.6 KiB (0%)
Title : ???? ?????
Language : Malay
Default : No
Forced : No

Text #20
ID : 22
Format : UTF-8
Codec ID : S_TEXT/UTF8
Codec ID/Info : UTF-8 Plain Text
Duration : 50 min 16 s
Bit rate : 42 b/s
Count of elements : 503
Stream size : 15.5 KiB (0%)
Title : norsk
Language : Norwegian Bokmal
Default : No
Forced : No

Text #21
ID : 23
Format : UTF-8
Codec ID : S_TEXT/UTF8
Codec ID/Info : UTF-8 Plain Text
Duration : 50 min 16 s
Bit rate : 40 b/s
Count of elements : 508
Stream size : 14.9 KiB (0%)
Title : J?zyk polski
Language : Polish
Default : No
Forced : No

Text #22
ID : 24
Format : UTF-8
Codec ID : S_TEXT/UTF8
Codec ID/Info : UTF-8 Plain Text
Duration : 50 min 16 s
Bit rate : 44 b/s
Count of elements : 498
Stream size : 16.3 KiB (0%)
Title : Português
Language : Portuguese
Default : No
Forced : No

Text #23
ID : 25
Format : UTF-8
Codec ID : S_TEXT/UTF8
Codec ID/Info : UTF-8 Plain Text
Duration : 50 min 16 s
Bit rate : 42 b/s
Count of elements : 509
Stream size : 15.7 KiB (0%)
Title : Português
Language : Portuguese
Default : No
Forced : No

Text #24
ID : 26
Format : UTF-8
Codec ID : S_TEXT/UTF8
Codec ID/Info : UTF-8 Plain Text
Duration : 50 min 16 s
Bit rate : 50 b/s
Count of elements : 509
Stream size : 18.7 KiB (0%)
Title : Limba roman?
Language : Romanian
Default : No
Forced : No

Text #25
ID : 27
Format : UTF-8
Codec ID : S_TEXT/UTF8
Codec ID/Info : UTF-8 Plain Text
Duration : 50 min 16 s
Bit rate : 68 b/s
Count of elements : 509
Stream size : 25.2 KiB (0%)
Title : русский язык
Language : Russian
Default : No
Forced : No

Text #26
ID : 28
Format : UTF-8
Codec ID : S_TEXT/UTF8
Codec ID/Info : UTF-8 Plain Text
Duration : 50 min 16 s
Bit rate : 42 b/s
Count of elements : 508
Stream size : 15.8 KiB (0%)
Title : Espa?ol?(Latinoamérica)
Language : Spanish
Default : No
Forced : No

Text #27
ID : 29
Format : UTF-8
Codec ID : S_TEXT/UTF8
Codec ID/Info : UTF-8 Plain Text
Duration : 50 min 16 s
Bit rate : 42 b/s
Count of elements : 509
Stream size : 15.8 KiB (0%)
Title : Espa?ol?(Espa?a)
Language : Spanish
Default : No
Forced : No

Text #28
ID : 30
Format : UTF-8
Codec ID : S_TEXT/UTF8
Codec ID/Info : UTF-8 Plain Text
Duration : 50 min 16 s
Bit rate : 42 b/s
Count of elements : 498
Stream size : 15.5 KiB (0%)
Title : svenska
Language : Swedish
Default : No
Forced : No

Text #29
ID : 31
Format : UTF-8
Codec ID : S_TEXT/UTF8
Codec ID/Info : UTF-8 Plain Text
Duration : 50 min 16 s
Bit rate : 111 b/s
Count of elements : 511
Stream size : 41.1 KiB (0%)
Title : ???
Language : Thai
Default : No
Forced : No

Text #30
ID : 32
Format : UTF-8
Codec ID : S_TEXT/UTF8
Codec ID/Info : UTF-8 Plain Text
Duration : 50 min 16 s
Bit rate : 40 b/s
Count of elements : 509
Stream size : 15.0 KiB (0%)
Title : Türk
Language : Turkish
Default : No
Forced : No

Text #31
ID : 33
Format : UTF-8
Codec ID : S_TEXT/UTF8
Codec ID/Info : UTF-8 Plain Text
Duration : 50 min 16 s
Bit rate : 67 b/s
Count of elements : 510
Stream size : 24.9 KiB (0%)
Title : Укра?нська
Language : Ukrainian
Default : No
Forced : No

Text #32
ID : 34
Format : UTF-8
Codec ID : S_TEXT/UTF8
Codec ID/Info : UTF-8 Plain Text
Duration : 50 min 16 s
Bit rate : 62 b/s
Count of elements : 508
Stream size : 23.0 KiB (0%)
Title : Ti?ng Vi?t
Language : Vietnamese
Default : No
Forced : No

点击图片可查看大图

软字幕无法在截图上展现,HDR版本/杜比视界版本截图会出现颜色异常,请使用支持的设备播放!

部分资源为软字幕,移动端推荐播放器:MxPlayer,nPlayer,infuse ,其他播放器请自行尝试。

部分资源为软字幕,电脑端推荐播放器:PotPlayer,完美解码,KMPLAYER,其他播放器请自行尝试。



1 个附件 售价 大小 下载 时间

Brand.New.Cherry.Flavor.S01.2021.NF.WEB-DL.1080p.HEVC.HDR.DDP-Xiaomi[BTBTT].torrent 0 金币 41.82K 217 次 12月前

#1楼
发帖时间:2023-06-22 21:26:55   |   回复数:0
游客组