BILL36
隐世仙人♂

[2023] [美国] [剧情] [WEB-1080P] 鹿角男孩 第二季[全8集][简繁英字幕].Sweet.Tooth.S02.1080p.NF.WEB-DL.DDP5.1.H.264-BlackTV 16.65G

-->

完整标题:鹿角男孩 第二季[全8集][简繁英字幕].Sweet.Tooth.S02.1080p.NF.WEB-DL.DDP5.1.H.264-BlackTV 16.65GB



◎标  题 鹿角男孩 第二季
◎译  名 甜牙
◎片  名 Sweet Tooth Season 2
◎年  代 2023
◎产  地 美国
◎类  别 剧情 / 动作 / 科幻 / 奇幻 / 冒险
◎语  言 英语
◎IMDb链接 https://www.imdb.com/title/tt15137430/
◎豆瓣链接 https://movie.douban.com/subject/35561694/
◎导  演 吉姆·米可 Jim Mickle
◎编  剧 杰夫·勒米尔 Jeff Lemire
      吉姆·米可 Jim Mickle
◎演  员 克里斯蒂安·康佛瑞 Christian Convery
      艾米·唐纳德 Amie Donald
      威尔·福特 Will Forte
      侬索·阿诺斯 Nonso Anozie
      丹妮亚·拉米雷兹 Dania Ramirez
      詹姆斯·布洛林 James Brolin
      阿迪勒·阿赫塔尔 Adeel Akhtar
      斯蒂芬妮娅·欧文 Stefania Owen
      尼尔·桑迪兰兹 Neil Sandilands
      约纳斯·基布雷亚布 Yonas Kibreab
      阿里萨·维拉尼 Aliza Vellani
      马龙·威廉姆斯 Marlon Williams
      埃罗尔·尚德 Erroll Shand

◎简  介
    随着新一轮致命的疾疫逼近,盖斯(克里斯蒂安·康佛瑞饰)和混种人同伴们被艾伯特将军(尼尔·桑迪兰兹饰)和最后的男人囚禁。为了通过找到治愈方法来巩固自己的权力,艾伯特将孩子们用作俘虏阿迪亚·辛格博士(阿迪勒·阿赫塔尔饰)的实验诱饵,而阿迪亚·辛格博士正在努力拯救他被感染的妻子拉妮(阿里萨·维拉尼饰)。为了保护朋友,盖斯同意帮助辛格博士,踏上了一段未知的旅程,探索他的出身以及他的母亲波蒂(艾米·西米茨饰)在“大崩溃”事件中所扮演的角色。在保护区外,汤米·杰普德(侬索·阿诺斯饰)和艾米·伊登(丹妮亚·拉米雷兹饰)联手解救混种人,随着杰普德的秘密曝光,他们的合作关系将受到考验。由于过去的事件对目前的解救行动造成了威胁,盖斯和团聚的家人与艾伯特和邪恶势力发生了冲突,而这些邪恶势力则想要一劳永逸地消灭他们。《Sweet Tooth:鹿角男孩》改编自杰夫·勒米尔的 DC 漫画系列书籍,由吉姆·米可、苏珊·唐尼、小罗伯特·唐尼、阿曼达·伯勒尔和琳达·莫兰共同担任监制。该剧集由 Warner Bros. Television 负责制作。

##### MediaInfo ######
General
Unique ID : 257313061467593807813593812456110239435 (0xC194B16983231BB3CA36F93C299B2ECB)
Complete name : Sweet.Tooth.S02E01.In.Captivity.1080p.NF.WEB-DL.DDP.5.1.H.264-BlackTV.mkv
Format : Matroska
Format version : Version 4
File size : 2.16 GiB
Duration : 57 min 2 s
Overall bit rate mode : Variable
Overall bit rate : 5 427 kb/s
Encoded date : UTC 2023-04-27 07:05:55
Writing application : mkvmerge v71.1.0 ('Fortitude') 64-bit
Writing library : libebml v1.4.4 + libmatroska v1.7.1
Muxer : CHDBits WEB Group

Video
ID : 1
Format : AVC
Format/Info : Advanced Video Codec
Format profile : Main@L4
Format settings : CABAC / 3 Ref Frames
Format settings, CABAC : Yes
Format settings, Reference frames : 3 frames
Codec ID : V_MPEG4/ISO/AVC
Duration : 57 min 2 s
Bit rate mode : Variable
Bit rate : 5 000 kb/s
Maximum bit rate : 7 500 kb/s
Width : 1 920 pixels
Height : 1 080 pixels
Display aspect ratio : 16:9
Frame rate mode : Constant
Frame rate : 23.976 (24000/1001) FPS
Color space : YUV
Chroma subsampling : 4:2:0
Bit depth : 8 bits
Scan type : Progressive
Bits/(Pixel*Frame) : 0.101
Stream size : 1.91 GiB (88%)
Writing library : x264 core 148 r2727 7d026e8
Encoding settings : cabac=1 / ref=3 / deblock=1:0:0 / analyse=0x1:0x111 / me=umh / subme=10 / psy=1 / psy_rd=1.00:0.00 / mixed_ref=1 / me_range=24 / chroma_me=1 / trellis=2 / 8x8dct=0 / cqm=0 / deadzone=21,11 / fast_pskip=1 / chroma_qp_offset=-2 / threads=8 / lookahead_threads=1 / sliced_threads=0 / nr=0 / decimate=1 / interlaced=0 / bluray_compat=0 / stitchable=1 / constrained_intra=0 / bframes=2 / b_pyramid=0 / b_adapt=2 / b_bias=0 / direct=3 / weightb=1 / open_gop=0 / weightp=2 / keyint=48 / keyint_min=25 / scenecut=0 / intra_refresh=0 / rc_lookahead=48 / rc=2pass / mbtree=1 / bitrate=5000 / ratetol=1.0 / qcomp=0.50 / qpmin=6 / qpmax=51 / qpstep=4 / cplxblur=20.0 / qblur=0.5 / vbv_maxrate=7500 / vbv_bufsize=10000 / nal_hrd=vbr / filler=0 / ip_ratio=1.40 / aq=1:1.00
Language : English
Default : Yes
Forced : No

Audio
ID : 2
Format : E-AC-3
Format/Info : Enhanced AC-3
Commercial name : Dolby Digital Plus
Codec ID : A_EAC3
Duration : 57 min 2 s
Bit rate mode : Constant
Bit rate : 640 kb/s
Channel(s) : 6 channels
Channel layout : L R C LFE Ls Rs
Sampling rate : 48.0 kHz
Frame rate : 31.250 FPS (1536 SPF)
Compression mode : Lossy
Stream size : 261 MiB (12%)
Language : English
Service kind : Complete Main
Default : Yes
Forced : No

Text #1
ID : 3
Format : UTF-8
Codec ID : S_TEXT/UTF8
Codec ID/Info : UTF-8 Plain Text
Duration : 53 min 15 s
Bit rate : 51 b/s
Count of elements : 782
Stream size : 20.2 KiB (0%)
Title : SDH
Language : English
Default : No
Forced : No

Text #2
ID : 4
Format : UTF-8
Codec ID : S_TEXT/UTF8
Codec ID/Info : UTF-8 Plain Text
Duration : 52 min 58 s
Bit rate : 40 b/s
Count of elements : 583
Stream size : 15.7 KiB (0%)
Title : Simplified
Language : Chinese
Default : No
Forced : No

Text #3
ID : 5
Format : UTF-8
Codec ID : S_TEXT/UTF8
Codec ID/Info : UTF-8 Plain Text
Duration : 52 min 58 s
Bit rate : 40 b/s
Count of elements : 582
Stream size : 15.7 KiB (0%)
Title : Traditional
Language : Chinese
Default : No
Forced : No

Menu
00:53:28.000 : en:End Credits

点击图片可查看大图

软字幕无法在截图上展现,HDR版本/杜比视界版本截图会出现颜色异常,请使用支持的设备播放!

部分资源为软字幕,移动端推荐播放器:MxPlayer,nPlayer,infuse ,其他播放器请自行尝试。

部分资源为软字幕,电脑端推荐播放器:PotPlayer,完美解码,KMPLAYER,其他播放器请自行尝试。



1 个附件 售价 大小 下载 时间

Sweet.Tooth.S02.1080p.NF.WEB-DL.DDP5.1.H.264-BlackTV[BTBTT].torrent 0 金币 45.33K 938 次 11月前

#1楼
发帖时间:2023-06-22 21:27:33   |   回复数:0
游客组