BILL36
隐世仙人♂

[2021] [美国] [喜剧] [WEB-1080P] 萤火虫小巷 第一季[全10集][简繁英字幕].Firefly.Lane.S01.1080p.NF.WEB-DL.DDP5.1.Atmos.H.264-Black

-->

完整标题:萤火虫小巷 第一季[全10集][简繁英字幕].Firefly.Lane.S01.1080p.NF.WEB-DL.DDP5.1.Atmos.H.264-BlackTV 16.95GB



◎标  题 萤火虫小巷 第一季
◎译  名 最好的妳 / 最好的你
◎片  名 Firefly Lane Season 1
◎年  代 2021
◎产  地 美国
◎类  别 喜剧
◎语  言 英语
◎IMDb评分 7.4/10 (26950人评价)
◎IMDb链接 https://www.imdb.com/title/tt9012876/
◎豆瓣评分 7.7/10 (1749人评价)
◎豆瓣链接 https://movie.douban.com/subject/30468933/
◎导  演 凡妮莎·帕里斯 Vanessa Parise
      李·罗丝 Lee Rose
      安妮·惠勒 Anne Wheeler
      皮特·奥法伦 Peter O'Fallon
◎编  剧 萨凡娜·杜利 Savannah Dooley
◎演  员 碧儿·加勒特 Beau Garrett
      萨拉·乔克 Sarah Chalke
      罗恩·柯蒂斯 Roan Curtis
      凯瑟琳·海格尔 Katherine Heigl
      本·劳森 Ben Lawson
      艾丽·斯考比 Ali Skovbye
      耶尔·雅曼 Yael Yurman
      乔恩-迈克尔·埃克尔 Jon-Michael Ecker
      保罗·麦克吉莱恩 Paul McGillion
      谢拉赫·霍斯达尔 Chelah Horsdal
      布雷登·泰勒 Brendan Taylor
      布兰顿·杰·麦克拉伦 Brandon Jay McLaren
      奎恩·罗德 Quinn Lord
      杰森·麦金农 Jason McKinnon
      珍娜·罗斯诺 Jenna Rosenow
      安德烈斯·约瑟夫 Andres Joseph
      帕特里克·萨邦圭 Patrick Sabongui
      塔拉·威尔逊 Tara Wilson
      莉兹·博伊斯 Lizzie Boys
      马蒂亚斯·雷塔马尔 Mathias Retamal
      马丁·唐文 Martin Donovan
      哈姆扎·福阿德 Hamza Fouad

◎简  介
    改编自Kristin Hannah的同名畅销小说,Katherine Heigl和Sarah Chalke主演。剧集讲述了两个好朋友三十年一路相伴走来的故事。   原著小说还有第二本《再见,萤火虫小巷 Fly Away》。

##### MediaInfo ######
General
Unique ID : 339396745687253133461340107158010426047 (0xFF556F8082B6335E929615A08FFB72BF)
Complete name : Firefly.Lane.S01E01.Hello.Yellow.Brick.Road.1080p.NF.WEB-DL.DDP.5.1.Atmos.H.264-BlackTV.mkv
Format : Matroska
Format version : Version 4
File size : 1.75 GiB
Duration : 51 min 9 s
Overall bit rate mode : Variable
Overall bit rate : 4 892 kb/s
Encoded date : UTC 2023-04-27 07:46:36
Writing application : mkvmerge v71.1.0 ('Fortitude') 64-bit
Writing library : libebml v1.4.4 + libmatroska v1.7.1
Muxer : CHDBits WEB Group

Video
ID : 1
Format : AVC
Format/Info : Advanced Video Codec
Format profile : Main@L4
Format settings : CABAC / 3 Ref Frames
Format settings, CABAC : Yes
Format settings, Reference frames : 3 frames
Codec ID : V_MPEG4/ISO/AVC
Duration : 51 min 9 s
Bit rate mode : Variable
Bit rate : 4 220 kb/s
Maximum bit rate : 6 330 kb/s
Width : 1 920 pixels
Height : 1 080 pixels
Display aspect ratio : 16:9
Frame rate mode : Constant
Frame rate : 23.976 (24000/1001) FPS
Color space : YUV
Chroma subsampling : 4:2:0
Bit depth : 8 bits
Scan type : Progressive
Bits/(Pixel*Frame) : 0.085
Stream size : 1.47 GiB (84%)
Writing library : x264 core 148 r2727 7d026e8
Encoding settings : cabac=1 / ref=3 / deblock=1:0:0 / analyse=0x1:0x111 / me=umh / subme=10 / psy=1 / psy_rd=1.00:0.00 / mixed_ref=1 / me_range=24 / chroma_me=1 / trellis=2 / 8x8dct=0 / cqm=0 / deadzone=21,11 / fast_pskip=1 / chroma_qp_offset=-2 / threads=8 / lookahead_threads=1 / sliced_threads=0 / nr=0 / decimate=1 / interlaced=0 / bluray_compat=0 / stitchable=1 / constrained_intra=0 / bframes=2 / b_pyramid=0 / b_adapt=2 / b_bias=0 / direct=3 / weightb=1 / open_gop=0 / weightp=2 / keyint=250 / keyint_min=23 / scenecut=0 / intra_refresh=0 / rc_lookahead=48 / rc=2pass / mbtree=1 / bitrate=4220 / ratetol=1.0 / qcomp=0.50 / qpmin=6 / qpmax=51 / qpstep=4 / cplxblur=20.0 / qblur=0.5 / vbv_maxrate=6330 / vbv_bufsize=8440 / nal_hrd=vbr / filler=0 / ip_ratio=1.40 / aq=1:1.00
Language : English
Default : Yes
Forced : No

Audio
ID : 2
Format : E-AC-3 JOC
Format/Info : Enhanced AC-3 with Joint Object Coding
Commercial name : Dolby Digital Plus with Dolby Atmos
Codec ID : A_EAC3
Duration : 51 min 9 s
Bit rate mode : Constant
Bit rate : 768 kb/s
Channel(s) : 6 channels
Channel layout : L R C LFE Ls Rs
Sampling rate : 48.0 kHz
Frame rate : 31.250 FPS (1536 SPF)
Compression mode : Lossy
Stream size : 281 MiB (16%)
Language : English
Service kind : Complete Main
Default : Yes
Forced : No
Complexity index : 16
Number of dynamic objects : 15
Bed channel count : 1 channel
Bed channel configuration : LFE

Text #1
ID : 3
Format : UTF-8
Codec ID : S_TEXT/UTF8
Codec ID/Info : UTF-8 Plain Text
Duration : 49 min 0 s
Bit rate : 83 b/s
Count of elements : 920
Stream size : 30.1 KiB (0%)
Title : SDH
Language : English
Default : No
Forced : No

Text #2
ID : 4
Format : UTF-8
Codec ID : S_TEXT/UTF8
Codec ID/Info : UTF-8 Plain Text
Duration : 49 min 39 s
Bit rate : 69 b/s
Count of elements : 703
Stream size : 25.2 KiB (0%)
Title : Simplified
Language : Chinese
Default : No
Forced : No

Text #3
ID : 5
Format : UTF-8
Codec ID : S_TEXT/UTF8
Codec ID/Info : UTF-8 Plain Text
Duration : 49 min 39 s
Bit rate : 66 b/s
Count of elements : 713
Stream size : 24.1 KiB (0%)
Title : Traditional
Language : Chinese
Default : No
Forced : No

Menu
00:49:13.000 : en:End Credits

点击图片可查看大图

软字幕无法在截图上展现,HDR版本/杜比视界版本截图会出现颜色异常,请使用支持的设备播放!

部分资源为软字幕,移动端推荐播放器:MxPlayer,nPlayer,infuse ,其他播放器请自行尝试。

部分资源为软字幕,电脑端推荐播放器:PotPlayer,完美解码,KMPLAYER,其他播放器请自行尝试。



1 个附件 售价 大小 下载 时间

Firefly.Lane.S01.1080p.NF.WEB-DL.DDP5.1.Atmos.H.264-BlackTV[BTBTT].torrent 0 金币 46.38K 189 次 12月前

#1楼
发帖时间:2023-06-22 21:27:43   |   回复数:0
游客组