BILL36
隐世仙人♂

[2023] [美国] [剧情] [WEB-1080P] 头号外交官[全8集][简繁英字幕].The.Diplomat.S01.1080p.NF.WEB-DL.DDP5.1.Atmos.H.264-BlackTV 15

-->

完整标题:头号外交官[全8集][简繁英字幕].The.Diplomat.S01.1080p.NF.WEB-DL.DDP5.1.Atmos.H.264-BlackTV 15.53GB



◎标  题 头号外交官
◎片  名 The Diplomat
◎年  代 2023
◎产  地 美国 / 英国
◎类  别 剧情 / 惊悚
◎语  言 英语
◎IMDb评分 8.2/10 (5040人评价)
◎IMDb链接 https://www.imdb.com/title/tt17491088/
◎豆瓣评分 7.5/10 (295人评价)
◎豆瓣链接 https://movie.douban.com/subject/35881452/
◎导  演 丽萨·约翰逊 Liza Johnson
      西蒙·赛伦·琼斯 Simon Cellan Jones
◎编  剧 黛博拉·卡恩 Debora Cahn
      阿曼达·约翰逊·泽特斯特伦 Amanda Johnson-Zetterström
◎演  员 凯丽·拉塞尔 Keri Russell
      卢夫斯·塞维尔 Rufus Sewell
      大卫·吉亚西 David Gyasi
      罗里·金尼尔 Rory Kinnear
      奥托·艾森度 Ato Essandoh
      阿丽·安 Ali Ahn
      巴夫·乔希 Bhav Joshi
      埃里克·蒂德 Eric Tiede
      安娜·弗兰科利尼 Anna Francolini
      西莉亚·伊姆里 Celia Imrie
      佩妮·唐尼 Penny Downie
      黛博拉·卡恩 Debora Cahn
      希滕·珀泰尔 Hiten Patel
      安德鲁·G·奥格尔比 Andrew G. Ogleby
      米盖尔·桑多瓦尔 Miguel Sandoval
      奥利弗·莫尔特曼 Oliver Maltman
      礼萨·迪亚科 Reza Diako
      毕扬·丹斯曼 Bijan Daneshmand
      James Beaumont
      马克·贾尼塞洛 Mark Janicello
      戴纳·哈克乔 Dana Haqjoo
      Melissa Advani
      珀尔·麦基 Pearl Mackie
      吉安尼·卡尔切蒂 Gianni Calchetti

◎简  介
    凯特·怀勒(凯丽·拉塞尔饰)是新任美国驻英国大使。原本应该去阿富汗的她在危机地区如鱼得水,而在一座历史悠久的房子里…就没那么自在了。战争在一片大陆上酝酿,在另一片大陆上沸腾。凯特不得不化解国际危机,在伦敦建立战略联盟,并适应她在聚光灯下的新位置 — 与此同时,她还要努力维持与职业外交官兼政治明星哈尔·怀勒(卢夫斯·塞维尔饰)的婚姻。《头号外交官》由剧集主管黛博拉·卡恩(《白宫风云》《国土安全》)打造,是一部危机四伏的当代政治剧情片,讲述了国家和人民之间长期动荡的关系。其他主演阵容还包括大卫·吉亚西、阿丽·安、罗里·金尼尔和奥托·艾森度,黛博拉·卡恩、贾尼丝·威廉斯和凯丽·拉塞尔共同担任监制。

##### MediaInfo ######
General
Unique ID : 230372592799746226259093687528365294375 (0xAD5025C181834BD5D961E3EBAD850327)
Complete name : The.Diplomat.S01E01.The.Cinderella.Thing.1080p.NF.WEB-DL.DDP.5.1.Atmos.H.264-BlackTV.mkv
Format : Matroska
Format version : Version 4
File size : 1.96 GiB
Duration : 50 min 51 s
Overall bit rate mode : Variable
Overall bit rate : 5 505 kb/s
Encoded date : UTC 2023-04-25 04:19:08
Writing application : mkvmerge v71.1.0 ('Fortitude') 64-bit
Writing library : libebml v1.4.4 + libmatroska v1.7.1
Muxer : CHDBits WEB Group

Video
ID : 1
Format : AVC
Format/Info : Advanced Video Codec
Format profile : Main@L4
Format settings : CABAC / 3 Ref Frames
Format settings, CABAC : Yes
Format settings, Reference frames : 3 frames
Codec ID : V_MPEG4/ISO/AVC
Duration : 50 min 51 s
Bit rate mode : Variable
Bit rate : 4 735 kb/s
Nominal bit rate : 5 000 kb/s
Maximum bit rate : 7 500 kb/s
Width : 1 920 pixels
Height : 1 080 pixels
Display aspect ratio : 16:9
Frame rate mode : Constant
Frame rate : 23.976 (24000/1001) FPS
Color space : YUV
Chroma subsampling : 4:2:0
Bit depth : 8 bits
Scan type : Progressive
Bits/(Pixel*Frame) : 0.095
Stream size : 1.68 GiB (86%)
Writing library : x264 core 148 r2727 7d026e8
Encoding settings : cabac=1 / ref=3 / deblock=1:0:0 / analyse=0x1:0x111 / me=umh / subme=10 / psy=1 / psy_rd=1.00:0.00 / mixed_ref=1 / me_range=24 / chroma_me=1 / trellis=2 / 8x8dct=0 / cqm=0 / deadzone=21,11 / fast_pskip=1 / chroma_qp_offset=-2 / threads=8 / lookahead_threads=1 / sliced_threads=0 / nr=0 / decimate=1 / interlaced=0 / bluray_compat=0 / stitchable=1 / constrained_intra=0 / bframes=2 / b_pyramid=0 / b_adapt=2 / b_bias=0 / direct=3 / weightb=1 / open_gop=0 / weightp=2 / keyint=48 / keyint_min=25 / scenecut=0 / intra_refresh=0 / rc_lookahead=48 / rc=2pass / mbtree=1 / bitrate=5000 / ratetol=1.0 / qcomp=0.50 / qpmin=6 / qpmax=51 / qpstep=4 / cplxblur=20.0 / qblur=0.5 / vbv_maxrate=7500 / vbv_bufsize=10000 / nal_hrd=vbr / filler=0 / ip_ratio=1.40 / aq=1:1.00
Language : English
Default : Yes
Forced : No

Audio
ID : 2
Format : E-AC-3 JOC
Format/Info : Enhanced AC-3 with Joint Object Coding
Commercial name : Dolby Digital Plus with Dolby Atmos
Codec ID : A_EAC3
Duration : 50 min 51 s
Bit rate mode : Constant
Bit rate : 768 kb/s
Channel(s) : 6 channels
Channel layout : L R C LFE Ls Rs
Sampling rate : 48.0 kHz
Frame rate : 31.250 FPS (1536 SPF)
Compression mode : Lossy
Stream size : 279 MiB (14%)
Language : English
Service kind : Complete Main
Default : Yes
Forced : No
Complexity index : 16
Number of dynamic objects : 15
Bed channel count : 1 channel
Bed channel configuration : LFE

Text #1
ID : 3
Format : UTF-8
Codec ID : S_TEXT/UTF8
Codec ID/Info : UTF-8 Plain Text
Duration : 46 min 49 s
Bit rate : 92 b/s
Count of elements : 780
Stream size : 31.6 KiB (0%)
Title : SDH
Language : English
Default : No
Forced : No

Text #2
ID : 4
Format : UTF-8
Codec ID : S_TEXT/UTF8
Codec ID/Info : UTF-8 Plain Text
Duration : 48 min 59 s
Bit rate : 78 b/s
Count of elements : 733
Stream size : 28.1 KiB (0%)
Title : Simplified
Language : Chinese
Default : No
Forced : No

Text #3
ID : 5
Format : UTF-8
Codec ID : S_TEXT/UTF8
Codec ID/Info : UTF-8 Plain Text
Duration : 49 min 18 s
Bit rate : 79 b/s
Count of elements : 774
Stream size : 28.9 KiB (0%)
Title : Traditional
Language : Chinese
Default : No
Forced : No

Menu
00:47:09.000 : en:End Credits

点击图片可查看大图

软字幕无法在截图上展现,HDR版本/杜比视界版本截图会出现颜色异常,请使用支持的设备播放!

部分资源为软字幕,移动端推荐播放器:MxPlayer,nPlayer,infuse ,其他播放器请自行尝试。

部分资源为软字幕,电脑端推荐播放器:PotPlayer,完美解码,KMPLAYER,其他播放器请自行尝试。



1 个附件 售价 大小 下载 时间

The.Diplomat.S01.1080p.NF.WEB-DL.DDP5.1.Atmos.H.264-BlackTV[BTBTT].torrent 0 金币 42.59K 441 次 12月前

#1楼
发帖时间:2023-06-22 21:28:08   |   回复数:0
游客组