BILL36
隐世仙人♂

[2023] [大陆] [剧情] [WEB-1080P] 欢乐颂4[全37集][国语配音/中文字幕].Ode.to.Joy.S04.2023.1080p.WEB-DL.H264.AAC-SeeWEB 14.85GB

-->

完整标题:欢乐颂4[全37集][国语配音/中文字幕].Ode.to.Joy.S04.2023.1080p.WEB-DL.H264.AAC-SeeWEB 14.85GB



◎标  题 欢乐颂4
◎译  名 欢乐颂第四季 / Ode to Joy 4
◎年  代 2023
◎产  地 中国大陆
◎类  别 剧情 / 爱情
◎语  言 汉语普通话
◎IMDb链接 https://www.imdb.com/title//
◎豆瓣链接 https://movie.douban.com/subject/35236761/
◎导  演 简川訸 Chuanhe Jian
◎编  剧 阿耐 A Nai
◎演  员 江疏影 Shuying Jiang
      杨采钰 Caiyu Yang
      张佳宁 Jianing Zhang
      张慧雯 Huiwen Zhang
      李浩菲 Haofei Li
      窦骁 Shawn Dou
      王安宇 Anyu Wang
      曲哲明 Zheming Qu
      经超 Chao Jing
      黄觉 Jue Huang
      沈盛男 Shengnan Shen
      薛昊婧 Haojing Xue
      刘旬 Angela
      吕承珏 Chengjue Lü
      刘启恒 Qiheng Liu

◎简  介
    生活给的考验还在继续,欢乐颂小区22楼的五个女生,也迎来了事业、生活以及情感上新的挑战和机遇。叶蓁蓁开始了与戴维的爱情,两人非常合拍,但一心扑在科研上的她还是不可避免地被卷入各种工作上的非议和两个家庭的拉锯中;方芷衡终于走出过去的阴影,但性格也逐渐改变,22楼这个热闹的团体激发了她内心柔软的一面;朱喆一再遭到上级的打压,但她相信天无绝人之路,这个社会多的是可供平常人发光发热的领域;何悯鸿还在经历着更多的挫折,她在男友的影响下,和22楼的女生渐行渐远;余初晖把更多精力投入工作,终于走出了毕业以来的迷茫。22楼就仿佛一个避风港,这五个女孩之间虽然也会有争执和质疑,但更多时候却能够互相理解和关怀,彼此给予帮助,真诚交换意见,携手面对生活里的大小困难,各自收获成长与蜕变。

##### MediaInfo ######
General
Complete name : 欢乐颂.Ode.to.Joy.S04E01.2023.1080p.WEB-DL.H264.AAC-SeeWEB.mp4
Format : MPEG-4
Format profile : Base Media
Codec ID : isom (isom/iso2/avc1/mp41)
File size : 454 MiB
Duration : 45 min 40 s
Overall bit rate mode : Variable
Overall bit rate : 1 391 kb/s
Writing application : Lavf58.32.104

Video
ID : 1
Format : AVC
Format/Info : Advanced Video Codec
Format profile : High@L4
Format settings : CABAC / 4 Ref Frames
Format settings, CABAC : Yes
Format settings, Reference frames : 4 frames
Codec ID : avc1
Codec ID/Info : Advanced Video Coding
Duration : 45 min 40 s
Bit rate : 1 292 kb/s
Width : 1 920 pixels
Height : 1 080 pixels
Display aspect ratio : 16:9
Frame rate mode : Variable
Frame rate : 25.000 FPS
Minimum frame rate : 24.993 FPS
Maximum frame rate : 25.007 FPS
Color space : YUV
Chroma subsampling : 4:2:0
Bit depth : 8 bits
Scan type : Progressive
Bits/(Pixel*Frame) : 0.025
Stream size : 422 MiB (93%)
Color range : Limited
Color primaries : BT.709
Transfer characteristics : BT.709
Matrix coefficients : BT.709
Codec configuration box : avcC

Audio
ID : 2
Format : AAC LC
Format/Info : Advanced Audio Codec Low Complexity
Codec ID : mp4a-40-2
Duration : 45 min 40 s
Bit rate mode : Variable
Bit rate : 93.4 kb/s
Maximum bit rate : 108 kb/s
Channel(s) : 2 channels
Channel layout : L R
Sampling rate : 48.0 kHz
Frame rate : 46.875 FPS (1024 SPF)
Compression mode : Lossy
Stream size : 30.5 MiB (7%)
Default : Yes
Alternate group : 1

点击图片可查看大图

软字幕无法在截图上展现,HDR版本/杜比视界版本截图会出现颜色异常,请使用支持的设备播放!

部分资源为软字幕,移动端推荐播放器:MxPlayer,nPlayer,infuse ,其他播放器请自行尝试。

部分资源为软字幕,电脑端推荐播放器:PotPlayer,完美解码,KMPLAYER,其他播放器请自行尝试。



1 个附件 售价 大小 下载 时间

Ode.to.Joy.S04.2023.1080p.WEB-DL.H264.AAC-SeeWEB[BTBTT].torrent 0 金币 43.46K 1078 次 12月前

#1楼
发帖时间:2023-06-22 21:28:22   |   回复数:0
游客组