BILL36
隐世仙人♂

[2021] [大陆] [古装] [WEB-1080P] 看见缘分的少女[全24集][国语配音/中文字幕].Love.is.Written.in.the.Stars.S01.2023.1080p.LINETV.WEB-

-->

完整标题:看见缘分的少女[全24集][国语配音/中文字幕].Love.is.Written.in.the.Stars.S01.2023.1080p.LINETV.WEB-DL.H264.AAC-SeeWEB 47.91GB



◎标  题 看见缘分的少女
◎年  代 2021
◎产  地 中国大陆
◎类  别 古装
◎语  言 汉语普通话
◎IMDb链接 https://www.imdb.com/title//
◎豆瓣链接 https://movie.douban.com/subject/35235539/
◎导  演 沈金飞 Jinfei Shen
◎编  剧 周淼 Miao Zhou
◎演  员 戚砚笛 Yandi Qi
      敖瑞鹏 Ruipeng Ao
      潘非佯 Feiyang Pan
      张可艾 Keai Zhang
      金祺承 qicheng jin
      曾文铄 Wenshuo Zeng
      周昱尧 Yuyao Zhou

◎简  介
    不能动情的异能少女帮天生克妻命的恨嫁小侯爷结缘,结果却搭上了自己。

##### MediaInfo ######
General
Complete name : 看见缘分的少女.Love.is.Written.in.the.Stars.S01E01.2023.1080p.LINETV.WEB-DL.H264.AAC-SeeWEB.mp4
Format : MPEG-4
Format profile : Base Media
Codec ID : isom (isom/iso2/avc1/mp41)
File size : 2.37 GiB
Duration : 45 min 20 s
Overall bit rate mode : Variable
Overall bit rate : 7 473 kb/s
Writing application : OurTV Multimedia Platform

Video
ID : 1
Format : AVC
Format/Info : Advanced Video Codec
Format profile : High@L4
Format settings : CABAC / 3 Ref Frames
Format settings, CABAC : Yes
Format settings, Reference frames : 3 frames
Codec ID : avc1
Codec ID/Info : Advanced Video Coding
Duration : 45 min 20 s
Source duration : 45 min 20 s
Bit rate mode : Variable
Bit rate : 7 038 kb/s
Maximum bit rate : 9 000 kb/s
Width : 1 920 pixels
Height : 1 080 pixels
Display aspect ratio : 16:9
Frame rate mode : Constant
Frame rate : 25.000 FPS
Color space : YUV
Chroma subsampling : 4:2:0
Bit depth : 8 bits
Scan type : Progressive
Bits/(Pixel*Frame) : 0.136
Stream size : 2.23 GiB (94%)
Source stream size : 2.33 GiB (98%)
mdhd_Duration : 2720633
Codec configuration box : avcC

Audio
ID : 2
Format : AAC LC
Format/Info : Advanced Audio Codec Low Complexity
Codec ID : mp4a-40-2
Duration : 45 min 20 s
Bit rate mode : Constant
Bit rate : 125 kb/s
Channel(s) : 2 channels
Channel layout : L R
Sampling rate : 48.0 kHz
Frame rate : 46.875 FPS (1024 SPF)
Compression mode : Lossy
Stream size : 40.7 MiB (2%)
Title : 国语
Language : Chinese
Default : Yes
Alternate group : 1

Text #1
ID : 3
Format : Timed Text
Muxing mode : sbtl
Codec ID : tx3g
Duration : 42 min 20 s
Bit rate mode : Variable
Bit rate : 59 b/s
Stream size : 18.3 KiB (0%)
Title : 简体中文
Language : Chinese
Default : Yes
Forced : No
Alternate group : 3

Text #2
ID : 4
Format : Timed Text
Muxing mode : sbtl
Codec ID : tx3g
Duration : 42 min 20 s
Bit rate mode : Variable
Bit rate : 59 b/s
Stream size : 18.3 KiB (0%)
Title : 繁体中文
Language : Chinese
Default : No
Forced : No
Alternate group : 3

点击图片可查看大图

软字幕无法在截图上展现,HDR版本/杜比视界版本截图会出现颜色异常,请使用支持的设备播放!

部分资源为软字幕,移动端推荐播放器:MxPlayer,nPlayer,infuse ,其他播放器请自行尝试。

部分资源为软字幕,电脑端推荐播放器:PotPlayer,完美解码,KMPLAYER,其他播放器请自行尝试。



1 个附件 售价 大小 下载 时间

Love.is.Written.in.the.Stars.S01.2023.1080p.LINETV.WEB-DL.H264.AAC-SeeWEB[BTBTT].torrent 0 金币 125.83K 616 次 12月前

#1楼
发帖时间:2023-06-22 21:28:32   |   回复数:0
游客组