BILL36
隐世仙人♂

[2023] [大陆] [短片] [WEB-4K] 光合计划[全8集][国语配音/中文字幕].Lit.Light.S01.2023.2160p.WEB-DL.H265.DDP2.0-SeeWEB 4.55GB

-->

完整标题:光合计划[全8集][国语配音/中文字幕].Lit.Light.S01.2023.2160p.WEB-DL.H265.DDP2.0-SeeWEB 4.55GB



◎标  题 光合计划
◎译  名 正午阳光“光合”影视人才圆梦计划
◎年  代 2023
◎产  地 中国大陆
◎类  别 短片
◎语  言 汉语普通话
◎IMDb链接 https://www.imdb.com/title//
◎豆瓣链接 https://movie.douban.com/subject/36358100/
◎导  演 张晗贝 Zhang Hanbei
      刘权文 Quanwen Liu
◎演  员 冯兵 Bing Feng
      陈放 Fang Chen
      邓皓 Hao Deng
      刘钧 Jun Liu
      朱丛冉 Bruce Zhu

◎简  介
    首届“光合”影视人才圆梦计划是由正午阳光独家发起,腾讯视频独播的优秀短片扶持计划,探寻影视精品内容,助力影视人才成长。经过一年多的赛程,我们从684封投稿中选出了12个团队进入拍摄阶段。克服去年疫情的不安,参赛团队群策群力,在春暖花开之际呈现出类型丰富、题材各异的8部短片。时长均在10-30分钟之间,涵盖青春校园、志怪、科幻、文艺、悬疑、亲情、伦理、古装等类型,多维度探索影像的表达方式,多层次洞察新鲜的艺术手法,给予影像更多的解读空间。

##### MediaInfo ######
General
Complete name : 光合计划.Lit.Light.S01E01.Pandora's.Cabinet.2023.2160p.WEB-DL.H265.DDP2.0-SeeWEB.mp4
Format : MPEG-4
Format profile : Base Media
Codec ID : isom (isom/iso2/mp41)
File size : 200 MiB
Duration : 10 min 48 s
Overall bit rate : 2 594 kb/s
Writing application : Lavf59.0.100

Video
ID : 1
Format : HEVC
Format/Info : High Efficiency Video Coding
Format profile : Main@L5@Main
Codec ID : hev1
Codec ID/Info : High Efficiency Video Coding
Duration : 10 min 47 s
Source duration : 10 min 47 s
Bit rate : 2 204 kb/s
Width : 3 840 pixels
Height : 1 634 pixels
Display aspect ratio : 2.35:1
Frame rate mode : Variable
Frame rate : 25.000 FPS
Minimum frame rate : 24.993 FPS
Maximum frame rate : 25.007 FPS
Color space : YUV
Chroma subsampling : 4:2:0
Bit depth : 8 bits
Bits/(Pixel*Frame) : 0.014
Stream size : 170 MiB (85%)
Source stream size : 170 MiB (85%)
Color range : Limited
Color primaries : BT.709
Transfer characteristics : BT.709
Matrix coefficients : BT.709
mdhd_Duration : 647922
Codec configuration box : hvcC

Audio #1
ID : 2
Format : E-AC-3
Format/Info : Enhanced AC-3
Commercial name : Dolby Digital Plus
Codec ID : ec-3
Duration : 10 min 48 s
Bit rate mode : Constant
Bit rate : 256 kb/s
Channel(s) : 2 channels
Channel layout : L R
Sampling rate : 48.0 kHz
Frame rate : 31.250 FPS (1536 SPF)
Compression mode : Lossy
Stream size : 19.8 MiB (10%)
Title : 国语
Language : Chinese
Service kind : Complete Main
Default : Yes
Alternate group : 1

Audio #2
ID : 3
Format : AAC LC
Format/Info : Advanced Audio Codec Low Complexity
Codec ID : mp4a-40-2
Duration : 10 min 47 s
Bit rate mode : Constant
Bit rate : 125 kb/s
Channel(s) : 2 channels
Channel layout : L R
Sampling rate : 48.0 kHz
Frame rate : 46.875 FPS (1024 SPF)
Compression mode : Lossy
Stream size : 9.68 MiB (5%)
Title : 国语
Language : Chinese
Default : No
Alternate group : 1

点击图片可查看大图

软字幕无法在截图上展现,HDR版本/杜比视界版本截图会出现颜色异常,请使用支持的设备播放!

部分资源为软字幕,移动端推荐播放器:MxPlayer,nPlayer,infuse ,其他播放器请自行尝试。

部分资源为软字幕,电脑端推荐播放器:PotPlayer,完美解码,KMPLAYER,其他播放器请自行尝试。



1 个附件 售价 大小 下载 时间

Lit.Light.S01.2023.2160p.WEB-DL.H265.DDP2.0-SeeWEB[BTBTT].torrent 0 金币 15.13K 301 次 12月前

#1楼
发帖时间:2023-06-22 21:28:36   |   回复数:0
游客组